VERSION	0.00.00	1.03.00
FES_MODE	0
BPM_DEF	100.000	150.000	150.000	 70.000
MET_DEF	4	4
RESOLUTION	384
CLK_DEF	384
COMPATIBLE_CODE	MA2

BPM	0	0	100.000
BPM	9	0	 72.000
BPM	10	0	150.000
BPM	72	0	 70.000
MET	0	0	4	4

TAP	2	0	0
TAP	2	192	0
HLD	3	0	1	192
TAP	4	0	2
TAP	4	192	2
HLD	5	0	3	192
TAP	6	0	4
TAP	6	192	4
HLD	7	0	5	192
TAP	8	0	6
TAP	8	192	6
HLD	9	0	0	288
HLD	9	0	7	288
TAP	10	0	0
TAP	10	96	0
TAP	10	192	0
TAP	11	0	7
TAP	11	96	7
TAP	11	192	7
HLD	12	0	0	192
TAP	13	0	1
TAP	13	192	1
HLD	14	0	2	192
TAP	15	0	3
TAP	15	96	4
TAP	15	192	3
HLD	16	0	4	192
TAP	17	0	5
TAP	17	192	5
HLD	18	0	6	192
TAP	19	0	7
TAP	19	96	0
BRK	19	192	7
TAP	20	0	7
TAP	20	96	7
TAP	20	192	7
TAP	21	0	6
TAP	21	96	6
TAP	21	192	6
HLD	22	0	5	192
TAP	23	0	4
TAP	23	96	4
TAP	23	192	3
TAP	23	192	4
TAP	24	0	3
TAP	24	96	3
TAP	24	192	3
TAP	25	0	2
TAP	25	96	2
TAP	25	192	2
HLD	26	0	1	192
TAP	27	0	0
TAP	27	96	0
TAP	27	192	0
TAP	27	192	7
TAP	28	0	0
TAP	28	0	1
TAP	28	192	0
TAP	28	192	1
TAP	29	0	1
TAP	29	96	0
TAP	29	192	1
TAP	30	0	2
TAP	30	0	3
TAP	30	192	2
TAP	30	192	3
TAP	31	0	2
TAP	31	96	3
TAP	31	192	2
TAP	32	0	4
TAP	32	0	5
TAP	32	192	4
TAP	32	192	5
TAP	33	0	5
TAP	33	96	4
TAP	33	192	5
TAP	34	0	6
TAP	34	0	7
TAP	34	192	6
TAP	34	192	7
TAP	35	0	6
TAP	35	96	7
TAP	35	192	6
HLD	36	0	1	192
HLD	36	0	6	192
BRK	37	0	1
BRK	37	0	6
TAP	38	0	7
TAP	38	96	7
TAP	38	192	7
TAP	39	0	6
TAP	39	96	6
TAP	39	192	6
TAP	40	0	5
TAP	40	96	5
TAP	40	192	4
TAP	40	288	4
TAP	41	0	3
TAP	41	96	4
TAP	41	192	3
TAP	42	0	2
TAP	42	0	3
TAP	42	192	2
TAP	42	192	3
TAP	43	0	4
TAP	43	0	5
TAP	43	192	4
TAP	43	192	5
TAP	44	0	2
TAP	44	0	4
TAP	44	192	3
TAP	44	192	5
TAP	45	0	3
TAP	45	0	4
TAP	45	96	3
TAP	45	96	4
BRK	45	192	2
BRK	45	192	5
TAP	46	0	0
TAP	46	96	0
TAP	46	192	0
TAP	47	0	1
TAP	47	96	1
TAP	47	192	1
TAP	48	0	2
TAP	48	96	2
TAP	48	192	3
TAP	48	288	3
TAP	49	0	4
TAP	49	96	3
TAP	49	192	4
TAP	50	0	4
TAP	50	0	5
TAP	50	192	4
TAP	50	192	5
TAP	51	0	2
TAP	51	0	3
TAP	51	192	2
TAP	51	192	3
TAP	52	0	3
TAP	52	0	5
TAP	52	192	2
TAP	52	192	4
TAP	53	0	3
TAP	53	0	4
TAP	53	96	3
TAP	53	96	4
TAP	53	192	2
TAP	53	192	5
STR	54	0	3
SI_	54	0	3	96	288	0
STR	54	0	4
SI_	54	0	4	96	288	7
TAP	56	0	6
TAP	56	96	6
TAP	56	192	5
TAP	56	288	5
TAP	57	0	4
TAP	57	96	3
TAP	57	192	4
TAP	58	0	2
TAP	58	0	4
TAP	58	96	2
TAP	58	96	4
TAP	58	192	2
TAP	58	192	4
TAP	59	0	3
TAP	59	0	5
TAP	59	96	3
TAP	59	96	5
TAP	59	192	3
TAP	59	192	5
TAP	60	0	6
TAP	60	0	7
TAP	60	192	0
TAP	60	192	7
TAP	61	0	0
TAP	61	0	1
TAP	61	192	1
TAP	61	288	0
STR	62	0	1
SI_	62	0	1	96	288	5
HLD	64	0	6	192
HLD	65	0	7	192
TAP	66	0	0
TAP	66	0	1
TAP	66	192	0
TAP	66	192	1
TAP	67	0	1
TAP	67	96	0
TAP	67	192	1
HLD	68	0	2	192
HLD	69	0	3	192
TAP	70	0	4
TAP	70	0	5
TAP	70	192	4
TAP	70	192	5
TAP	71	0	5
TAP	71	96	4
TAP	71	192	5
HLD	71	288	4	576

T_REC_TAP	172
T_REC_BRK	5
T_REC_XTP	0
T_REC_HLD	18
T_REC_XHO	0
T_REC_STR	3
T_REC_BST	0
T_REC_XST	0
T_REC_TTP	0
T_REC_THO	0
T_REC_SLD	3
T_REC_ALL	201
T_NUM_TAP	175
T_NUM_BRK	5
T_NUM_HLD	18
T_NUM_SLD	3
T_NUM_ALL	201
T_JUDGE_TAP	180
T_JUDGE_HLD	118
T_JUDGE_SLD	3
T_JUDGE_ALL	301
TTM_EACHPAIRS	45
TTM_SCR_TAP	87500
TTM_SCR_BRK	13000
TTM_SCR_HLD	18000
TTM_SCR_SLD	4500
TTM_SCR_ALL	123000
TTM_SCR_S	118850
TTM_SCR_SS	122500
TTM_RAT_ACV	10040

