VERSION	0.00.00	1.03.00
FES_MODE	0
BPM_DEF	190.000	190.000	190.000	190.000
MET_DEF	4	4
RESOLUTION	384
CLK_DEF	384
COMPATIBLE_CODE	MA2

BPM	0	0	190.000
MET	0	0	4	4

TAP	1	0	2
TAP	1	0	7
TAP	1	48	1
TAP	1	72	0
TAP	1	96	2
TAP	1	120	7
TAP	1	144	3
TAP	1	168	6
BRK	1	192	4
BRK	1	192	5
BRK	1	240	4
BRK	1	240	5
STR	2	0	0
SCL	2	0	0	96	48	5
TAP	2	48	1
TAP	2	96	2
TAP	2	144	3
STR	2	192	4
SCL	2	192	4	96	48	1
TAP	2	240	5
TAP	2	288	6
TAP	2	336	7
TAP	3	48	7
TAP	3	96	1
TAP	3	144	3
TAP	3	192	5
TAP	3	240	6
TAP	3	288	7
TAP	3	336	0
STR	4	0	7
SCR	4	0	7	96	48	2
TAP	4	48	6
TAP	4	96	5
TAP	4	144	4
STR	4	192	3
SCR	4	192	3	96	48	6
TAP	4	240	2
TAP	4	288	1
TAP	4	336	0
TAP	5	48	0
TAP	5	96	6
TAP	5	144	4
TAP	5	192	2
TAP	5	240	1
TAP	5	288	0
TAP	5	336	7
STR	6	0	0
SCL	6	0	0	96	48	5
TAP	6	48	1
TAP	6	96	2
TAP	6	144	3
STR	6	192	4
SCL	6	192	4	96	48	1
TAP	6	240	5
TAP	6	288	6
TAP	6	336	7
TAP	7	48	7
TAP	7	96	1
TAP	7	144	3
TAP	7	192	5
TAP	7	240	6
TAP	7	288	7
TAP	7	336	0
TAP	8	0	2
TAP	8	0	4
TAP	8	48	2
TAP	8	48	4
TAP	8	96	1
TAP	8	120	6
TAP	8	144	0
TAP	8	168	7
TAP	8	192	3
TAP	8	192	5
TAP	8	240	3
TAP	8	240	5
TAP	8	288	1
TAP	8	312	6
TAP	8	336	0
TAP	8	360	7
STR	9	0	1
SI_	9	0	1	96	48	4
TAP	9	96	1
STR	9	96	6
SI_	9	96	6	96	48	3
TAP	9	192	6
TAP	9	240	2
TAP	9	288	1
TAP	9	336	0
TAP	10	0	6
TAP	10	0	7
TAP	10	48	2
TAP	10	72	3
TAP	10	96	1
TAP	10	144	5
TAP	10	168	4
TAP	10	192	6
TAP	10	240	2
TAP	10	264	3
TAP	10	288	1
HLD	10	336	5	96
TAP	11	48	1
TAP	11	72	3
TAP	11	96	2
TAP	11	144	6
TAP	11	168	4
TAP	11	192	5
TAP	11	240	1
TAP	11	288	1
TAP	11	336	0
TAP	12	0	6
TAP	12	0	7
TAP	12	48	2
TAP	12	72	3
TAP	12	96	0
TAP	12	144	5
TAP	12	168	4
TAP	12	192	7
TAP	12	240	2
TAP	12	264	3
TAP	12	288	0
HLD	12	336	5	96
TAP	13	48	0
TAP	13	72	3
TAP	13	96	2
TAP	13	144	7
TAP	13	168	4
TAP	13	192	5
TAP	13	240	2
TAP	13	288	2
TAP	13	336	3
TAP	14	0	4
TAP	14	0	5
TAP	14	48	1
TAP	14	72	0
TAP	14	96	2
TAP	14	144	6
TAP	14	168	7
TAP	14	192	5
TAP	14	240	1
TAP	14	264	0
TAP	14	288	2
HLD	14	336	6	96
TAP	15	48	2
TAP	15	72	0
TAP	15	96	1
TAP	15	144	5
TAP	15	168	7
TAP	15	192	6
TAP	15	240	2
TAP	15	288	2
TAP	15	336	3
TAP	16	0	4
TAP	16	0	5
TAP	16	48	1
TAP	16	72	0
TAP	16	96	3
TAP	16	144	6
TAP	16	168	7
TAP	16	192	4
TAP	16	240	1
TAP	16	264	0
TAP	16	288	3
TAP	16	336	2
TAP	16	336	5
HLD	17	0	6	192
TAP	17	48	0
TAP	17	96	1
TAP	17	144	2
HLD	17	192	3	192
TAP	17	240	5
TAP	17	288	6
TAP	17	336	7
HLD	18	0	0	192
TAP	18	48	2
TAP	18	96	3
TAP	18	144	4
TAP	18	192	5
TAP	18	240	7
TAP	18	288	0
TAP	18	336	1
HLD	19	0	2	192
TAP	19	48	0
TAP	19	96	7
TAP	19	144	6
HLD	19	192	5	192
TAP	19	240	3
TAP	19	288	2
TAP	19	336	1
HLD	20	0	0	192
TAP	20	48	6
TAP	20	96	5
TAP	20	144	4
TAP	20	192	3
TAP	20	240	1
TAP	20	288	0
TAP	20	336	7
TAP	21	0	1
TAP	21	0	6
TAP	21	48	4
TAP	21	72	3
TAP	21	96	4
TAP	21	120	1
TAP	21	144	4
TAP	21	168	3
TAP	21	192	4
TAP	21	216	1
TAP	21	240	4
TAP	21	264	3
TAP	21	288	4
TAP	21	312	1
TAP	21	336	4
TAP	21	360	3
STR	22	0	6
SI_	22	0	6	96	24	4
STR	22	72	0
SI_	22	72	0	96	24	2
STR	22	144	7
SI_	22	144	7	96	24	3
STR	22	216	5
SI_	22	216	5	96	24	0
TAP	22	288	6
TAP	22	336	7
STR	23	0	1
SI_	23	0	1	96	24	3
STR	23	72	7
SI_	23	72	7	96	24	5
STR	23	144	0
SI_	23	144	0	96	24	4
STR	23	216	2
SI_	23	216	2	96	24	7
TAP	23	288	1
TAP	23	336	0
STR	24	0	1
SXR	24	0	1	96	144	4
STR	24	0	6
SXL	24	0	6	96	144	3
BRK	24	288	1
BRK	24	288	6
STR	25	0	0
SCR	25	0	0	96	48	3
TAP	25	48	5
STR	25	96	0
SUR	25	96	0	96	48	4
TAP	25	144	6
TAP	25	192	0
TAP	25	240	7
TAP	25	288	0
TAP	25	288	6
TAP	25	336	0
TAP	25	336	6
STR	26	0	7
SCL	26	0	7	96	48	4
TAP	26	48	2
STR	26	96	7
SUL	26	96	7	96	48	3
TAP	26	144	1
TAP	26	192	7
TAP	26	240	0
TAP	26	288	1
TAP	26	288	7
TAP	26	336	1
TAP	26	336	7
STR	27	0	0
SCR	27	0	0	96	48	3
TAP	27	48	5
STR	27	96	0
SUR	27	96	0	96	48	4
TAP	27	144	6
TAP	27	192	0
TAP	27	240	7
TAP	27	288	0
TAP	27	288	6
TAP	27	336	0
TAP	27	336	6
STR	28	0	0
SCR	28	0	0	96	96	4
STR	28	96	4
SCR	28	96	4	96	96	0
STR	28	192	0
SF_	28	192	0	96	48	4
TAP	29	0	1
TAP	29	0	6
TAP	29	48	4
TAP	29	72	3
TAP	29	96	4
TAP	29	120	2
TAP	29	144	4
TAP	29	168	3
TAP	29	192	4
TAP	29	216	2
TAP	29	240	4
TAP	29	264	3
TAP	29	288	4
TAP	29	312	2
TAP	29	336	4
TAP	29	360	3
STR	30	0	6
SI_	30	0	6	96	48	2
SCL	30	0	6	96	48	3
TAP	30	96	6
STR	30	192	1
SI_	30	192	1	96	48	5
SCR	30	192	1	96	48	4
TAP	30	288	1
TAP	31	0	1
TAP	31	0	6
TAP	31	48	3
TAP	31	72	4
TAP	31	96	3
TAP	31	120	5
TAP	31	144	3
TAP	31	168	4
TAP	31	192	3
TAP	31	216	5
TAP	31	240	3
TAP	31	264	4
TAP	31	288	3
TAP	31	312	5
TAP	31	336	3
TAP	31	360	4
STR	32	0	1
SI_	32	0	1	96	48	4
TAP	32	96	1
TAP	32	144	7
TAP	32	168	0
TAP	32	192	7
TAP	32	240	1
TAP	32	240	6
TAP	32	288	2
TAP	32	288	5
TAP	32	336	3
TAP	32	336	4
STR	33	0	0
SCR	33	0	0	96	48	3
STR	33	0	7
SCL	33	0	7	96	48	4
BRK	33	96	0
BRK	33	96	7
TAP	33	192	2
TAP	33	192	5
TAP	33	240	1
TAP	33	264	0
TAP	33	288	1
TAP	33	336	6
TAP	33	360	7
HLD	34	0	6	96
TAP	34	96	1
TAP	34	144	7
TAP	34	168	0
TAP	34	192	1
TAP	34	192	6
TAP	34	240	2
TAP	34	240	5
TAP	34	288	3
TAP	34	288	4
STR	35	0	0
SCL	35	0	0	96	48	4
HLD	35	0	6	96
TAP	35	96	0
TAP	35	192	6
TAP	35	240	5
TAP	35	240	7
TAP	35	288	0
TAP	35	288	4
TAP	35	336	1
TAP	35	336	3
HLD	36	0	2	96
TAP	36	96	4
TAP	36	144	0
TAP	36	168	7
TAP	36	192	1
TAP	36	192	6
TAP	36	240	1
TAP	36	240	6
TAP	36	288	3
TAP	36	288	4
TAP	37	0	0
TAP	37	24	1
TAP	37	48	2
TAP	37	72	3
TAP	37	96	0
TAP	37	120	7
TAP	37	144	6
TAP	37	168	5
TAP	37	192	1
TAP	37	216	2
TAP	37	240	3
TAP	37	264	4
TAP	37	288	6
TAP	37	312	5
TAP	37	336	4
TAP	37	360	3
TAP	38	0	7
TAP	38	24	0
TAP	38	48	1
TAP	38	72	2
TAP	38	96	7
TAP	38	120	6
TAP	38	144	5
TAP	38	168	4
TAP	38	192	3
TAP	38	192	7
TAP	38	240	0
TAP	38	240	4
TAP	38	288	1
TAP	38	288	5
TAP	38	336	2
TAP	38	336	6
HLD	39	0	3	96
HLD	39	0	7	96
TAP	39	144	0
TAP	39	168	0
TAP	39	192	0
TAP	39	240	7
TAP	39	288	0
TAP	39	336	1
TAP	40	0	2
TAP	40	48	5
TAP	40	72	4
TAP	40	120	2
TAP	40	144	3
TAP	40	192	2
TAP	40	192	5
TAP	40	288	0
TAP	40	288	7
STR	41	0	0
SCL	41	0	0	96	48	5
TAP	41	48	1
TAP	41	96	2
TAP	41	144	3
STR	41	192	4
SCL	41	192	4	96	48	1
TAP	41	240	5
TAP	41	288	6
TAP	41	336	7
STR	42	48	7
SI_	42	48	7	96	48	3
STR	42	96	1
SI_	42	96	1	96	48	5
TAP	42	144	7
TAP	42	192	1
TAP	42	240	6
TAP	42	288	7
TAP	42	336	0
STR	43	0	7
SCR	43	0	7	96	48	2
TAP	43	48	6
TAP	43	96	5
TAP	43	144	4
STR	43	192	3
SCR	43	192	3	96	48	6
TAP	43	240	2
TAP	43	288	1
TAP	43	336	0
STR	44	48	0
SI_	44	48	0	96	48	4
STR	44	96	6
SI_	44	96	6	96	48	2
TAP	44	144	0
TAP	44	192	6
TAP	44	240	1
TAP	44	288	0
TAP	44	336	7
STR	45	0	0
SCL	45	0	0	96	48	5
TAP	45	48	1
TAP	45	96	2
TAP	45	144	3
STR	45	192	4
SCL	45	192	4	96	48	1
TAP	45	240	5
TAP	45	288	6
TAP	45	336	7
STR	46	48	7
SUL	46	48	7	96	48	3
STR	46	96	1
SLR	46	96	1	96	48	5
TAP	46	144	7
TAP	46	192	1
TAP	46	240	6
TAP	46	288	7
TAP	46	336	0
STR	47	0	7
SCR	47	0	7	96	48	2
TAP	47	48	6
TAP	47	96	5
TAP	47	144	4
STR	47	192	3
SCR	47	192	3	96	48	6
TAP	47	240	2
TAP	47	288	1
TAP	47	336	0
STR	48	48	0
SUR	48	48	0	96	48	4
STR	48	96	6
SLL	48	96	6	96	48	2
TAP	48	144	0
TAP	48	192	6
TAP	48	240	1
TAP	48	288	0
TAP	48	336	7
STR	49	0	3
SCL	49	0	3	96	336	5
TAP	49	0	5
TAP	49	240	4
TAP	49	288	4
STR	49	336	5
SXR	49	336	5	96	432	0
TAP	50	0	5
TAP	50	144	6
TAP	50	288	7
STR	51	0	0
SCR	51	0	0	96	288	6
TAP	51	192	7
STR	51	288	6
SXL	51	288	6	96	288	3
TAP	51	336	6
TAP	52	144	5
TAP	52	192	5
STR	53	0	4
SCR	53	0	4	96	144	1
STR	53	144	1
SCL	53	144	1	96	144	4
TAP	53	240	2
TAP	53	288	2
TAP	53	336	3
STR	54	0	3
SCL	54	0	3	96	144	6
STR	54	144	6
SCR	54	144	6	96	144	3
TAP	54	192	6
TAP	54	288	5
STR	55	0	4
SF_	55	0	4	96	96	0
TAP	55	240	3
TAP	55	240	4
TAP	55	288	2
TAP	55	288	5
TAP	55	336	1
TAP	55	336	6
TAP	56	0	0
TAP	56	0	7
STR	56	48	1
SI_	56	48	1	96	48	4
STR	56	48	6
SI_	56	48	6	96	48	3
TAP	56	144	1
TAP	56	144	6
TAP	56	240	0
TAP	56	240	7
TAP	56	288	1
TAP	56	288	6
STR	57	0	0
SCL	57	0	0	96	48	4
HLD	57	0	6	96
TAP	57	96	0
TAP	57	192	2
TAP	57	192	5
TAP	57	240	6
TAP	57	264	7
TAP	57	288	6
TAP	57	336	1
TAP	57	360	0
HLD	58	0	1	96
TAP	58	96	6
TAP	58	144	0
TAP	58	168	7
TAP	58	192	1
TAP	58	192	6
TAP	58	240	2
TAP	58	240	5
TAP	58	288	3
TAP	58	288	4
HLD	59	0	1	96
STR	59	0	7
SCR	59	0	7	96	48	3
TAP	59	96	7
TAP	59	192	1
TAP	59	240	0
TAP	59	240	2
TAP	59	288	3
TAP	59	288	7
TAP	59	336	4
TAP	59	336	6
HLD	60	0	5	96
TAP	60	96	3
TAP	60	144	7
TAP	60	168	0
TAP	60	192	1
TAP	60	192	6
TAP	60	240	1
TAP	60	240	6
TAP	60	288	3
TAP	60	288	4
TAP	61	0	7
TAP	61	24	6
TAP	61	48	5
TAP	61	72	4
TAP	61	96	7
TAP	61	120	0
TAP	61	144	1
TAP	61	168	2
TAP	61	192	6
TAP	61	216	5
TAP	61	240	4
TAP	61	264	3
TAP	61	288	1
TAP	61	312	2
TAP	61	336	3
TAP	61	360	4
TAP	62	0	0
TAP	62	24	7
TAP	62	48	6
TAP	62	72	5
TAP	62	96	0
TAP	62	120	1
TAP	62	144	2
TAP	62	168	3
TAP	62	192	0
TAP	62	192	4
TAP	62	240	3
TAP	62	240	7
TAP	62	288	2
TAP	62	288	6
TAP	62	336	1
TAP	62	336	5
HLD	63	0	0	96
HLD	63	0	4	96
TAP	63	144	7
TAP	63	168	7
TAP	63	192	7
TAP	63	240	0
TAP	63	288	7
TAP	63	336	6
TAP	64	0	5
TAP	64	48	2
TAP	64	72	3
TAP	64	120	5
TAP	64	144	4
TAP	64	192	2
TAP	64	192	5
STR	64	288	0
SI_	64	288	0	96	48	3
STR	64	288	7
SI_	64	288	7	96	48	4
TAP	65	0	0
TAP	65	0	7
TAP	66	96	7
TAP	66	192	0
TAP	66	264	1
TAP	66	336	2
TAP	67	0	3
TAP	67	240	3
TAP	67	288	2
TAP	67	336	1
TAP	68	0	0
TAP	68	0	7
TAP	68	144	1
TAP	68	144	6
TAP	68	240	2
STR	68	288	3
SCR	68	288	3	96	96	6
TAP	68	336	7
STR	69	0	6
SCR	69	0	6	96	96	1
TAP	69	240	5
STR	69	288	4
SCL	69	288	4	96	96	1
TAP	69	336	0
STR	70	0	1
SCL	70	0	1	96	96	6
TAP	70	144	3
TAP	70	192	3
TAP	70	288	2
TAP	70	288	5
TAP	71	0	0
TAP	71	0	7
TAP	71	144	2
TAP	71	144	5
TAP	71	288	1
TAP	71	288	6
TAP	72	0	0
TAP	72	0	7
STR	72	48	1
SI_	72	48	1	96	48	4
STR	72	48	6
SI_	72	48	6	96	48	3
TAP	72	144	1
TAP	72	144	6
TAP	72	240	0
TAP	72	240	7
TAP	72	288	1
TAP	72	288	6
TAP	73	0	1
TAP	73	0	6
TAP	73	48	0
TAP	73	96	7
TAP	73	144	0
TAP	73	192	2
TAP	73	192	7
TAP	73	240	1
TAP	73	288	0
TAP	73	336	1
TAP	74	0	0
TAP	74	0	5
TAP	74	48	6
TAP	74	96	7
TAP	74	144	0
TAP	74	144	5
TAP	74	192	1
TAP	74	240	0
TAP	74	240	2
TAP	74	288	0
TAP	74	288	2
TAP	75	0	2
TAP	75	0	5
TAP	75	48	4
TAP	75	96	3
TAP	75	144	1
TAP	75	144	4
TAP	75	192	2
TAP	75	240	1
TAP	75	240	3
TAP	75	288	1
TAP	75	288	3
TAP	76	0	2
TAP	76	0	5
TAP	76	48	3
TAP	76	96	4
TAP	76	144	3
TAP	76	144	6
TAP	76	192	5
TAP	76	240	4
TAP	76	240	6
TAP	76	288	4
TAP	76	288	6
TAP	77	0	1
TAP	77	24	6
TAP	77	48	0
TAP	77	72	7
TAP	77	96	1
TAP	77	120	6
TAP	77	144	0
TAP	77	168	7
TAP	77	192	1
TAP	77	216	6
TAP	77	240	0
TAP	77	264	7
TAP	77	288	1
TAP	77	312	6
TAP	77	336	0
TAP	77	360	7
BRK	78	0	1
BRK	78	0	6
TAP	78	72	1
TAP	78	72	3
TAP	78	144	4
TAP	78	144	5
TAP	78	168	4
TAP	78	168	5
BRK	78	192	4
BRK	78	192	5
TAP	78	264	1
TAP	78	264	6
TAP	78	336	4
TAP	78	336	6
STR	79	0	0
SCR	79	0	0	96	48	3
STR	79	0	7
SCL	79	0	7	96	48	4
BRK	79	96	0
BRK	79	96	7
TAP	79	192	1
TAP	79	216	2
TAP	79	240	3
TAP	79	264	4
TAP	79	288	6
TAP	79	312	5
TAP	79	336	4
TAP	79	360	3
TAP	80	0	7
TAP	80	24	0
TAP	80	48	1
TAP	80	72	2
TAP	80	96	0
TAP	80	120	7
TAP	80	144	6
TAP	80	168	5
TAP	80	192	0
TAP	80	216	1
TAP	80	240	2
TAP	80	264	3
TAP	80	288	7
TAP	80	312	6
TAP	80	336	5
TAP	80	360	4
STR	81	0	3
SXL	81	0	3	96	48	5
STR	81	0	7
SXL	81	0	7	96	48	1
TAP	81	240	0
TAP	81	288	1
TAP	81	288	7
TAP	81	336	2
TAP	81	336	6
STR	82	0	4
SI_	82	0	4	96	48	1
STR	82	0	5
SI_	82	0	5	96	48	0
TAP	82	96	4
TAP	82	96	5
STR	82	192	2
SI_	82	192	2	96	48	7
STR	82	192	3
SI_	82	192	3	96	48	6
TAP	82	240	1
TAP	82	240	4
TAP	83	0	0
TAP	83	24	7
TAP	83	48	0
TAP	83	72	7
TAP	83	96	1
TAP	83	120	6
TAP	83	144	1
TAP	83	168	6
TAP	83	192	2
TAP	83	216	5
TAP	83	240	2
TAP	83	264	5
TAP	83	288	3
TAP	83	312	4
TAP	83	336	3
TAP	83	360	4
TAP	84	0	2
TAP	84	24	4
TAP	84	48	2
TAP	84	72	4
TAP	84	96	3
TAP	84	120	5
TAP	84	144	3
TAP	84	168	5
TAP	84	192	1
TAP	84	216	4
TAP	84	240	1
TAP	84	264	4
TAP	84	288	3
TAP	84	312	6
TAP	84	336	3
TAP	84	360	6
TAP	85	0	1
TAP	85	24	6
TAP	85	48	0
TAP	85	72	7
TAP	85	96	1
TAP	85	120	6
TAP	85	144	0
TAP	85	168	7
TAP	85	192	2
TAP	85	216	5
TAP	85	240	0
TAP	85	264	7
TAP	85	288	2
TAP	85	312	5
TAP	85	336	0
TAP	85	360	7
TAP	86	0	1
TAP	86	24	6
TAP	86	48	0
TAP	86	72	7
TAP	86	96	1
TAP	86	120	6
TAP	86	144	0
TAP	86	168	7
TAP	86	192	2
TAP	86	216	5
TAP	86	240	0
TAP	86	264	7
TAP	86	288	2
TAP	86	312	5
TAP	86	336	0
TAP	86	360	7
TAP	87	0	3
TAP	87	24	4
TAP	87	48	3
TAP	87	72	4
TAP	87	96	2
TAP	87	120	5
TAP	87	144	2
TAP	87	168	5
TAP	87	192	1
TAP	87	216	6
TAP	87	240	1
TAP	87	264	6
TAP	87	288	0
TAP	87	312	7
TAP	87	336	0
TAP	87	360	7
TAP	88	0	0
TAP	88	24	1
TAP	88	48	2
TAP	88	72	3
TAP	88	96	4
TAP	88	120	5
TAP	88	144	6
TAP	88	168	7
TAP	88	192	0
TAP	88	204	1
TAP	88	216	2
TAP	88	228	3
TAP	88	240	4
TAP	88	252	5
TAP	88	264	6
TAP	88	276	7
TAP	88	288	0
TAP	88	300	1
TAP	88	312	2
TAP	88	324	3
TAP	88	336	4
TAP	88	348	5
TAP	88	360	6
TAP	88	372	7
BST	89	0	0
SUR	89	0	0	96	720	2
BST	89	0	4
SUR	89	0	4	96	720	6

T_REC_TAP	729
T_REC_BRK	14
T_REC_XTP	0
T_REC_HLD	20
T_REC_XHO	0
T_REC_STR	78
T_REC_BST	2
T_REC_XST	0
T_REC_TTP	0
T_REC_THO	0
T_REC_SLD	82
T_REC_ALL	925
T_NUM_TAP	807
T_NUM_BRK	16
T_NUM_HLD	20
T_NUM_SLD	82
T_NUM_ALL	925
T_JUDGE_TAP	823
T_JUDGE_HLD	52
T_JUDGE_SLD	82
T_JUDGE_ALL	957
TTM_EACHPAIRS	118
TTM_SCR_TAP	403500
TTM_SCR_BRK	41600
TTM_SCR_HLD	20000
TTM_SCR_SLD	123000
TTM_SCR_ALL	588100
TTM_SCR_S	568950
TTM_SCR_SS	586500
TTM_RAT_ACV	10027

