VERSION	0.00.00	1.03.00
FES_MODE	0
BPM_DEF	190.000	190.000	190.000	190.000
MET_DEF	4	4
RESOLUTION	384
CLK_DEF	384
COMPATIBLE_CODE	MA2

BPM	0	0	190.000
MET	0	0	4	4

STR	1	0	3
SI_	1	0	3	96	48	7
STR	1	0	5
SI_	1	0	5	96	48	1
BST	1	192	0
SI_	1	192	0	96	48	4
BRK	1	240	0
TAP	2	0	5
HLD	2	48	5	384
TAP	2	144	4
TAP	2	240	4
TAP	2	336	4
HLD	3	48	1	384
TAP	3	144	2
TAP	3	240	2
TAP	3	336	2
HLD	4	48	7	384
TAP	4	144	6
TAP	4	240	6
TAP	4	336	6
TAP	5	48	3
TAP	5	96	4
TAP	5	144	3
TAP	5	192	7
TAP	5	240	0
TAP	5	288	6
TAP	5	336	1
TAP	6	0	5
HLD	6	48	2	192
TAP	6	144	3
HLD	6	240	6	192
TAP	6	336	5
HLD	7	48	0	192
TAP	7	144	1
TAP	7	240	7
TAP	7	336	0
TAP	8	0	1
TAP	8	0	7
BRK	8	48	2
BRK	8	48	6
TAP	8	192	0
TAP	8	192	6
BRK	8	240	1
BRK	8	240	5
TAP	9	0	1
TAP	9	0	2
TAP	9	96	5
TAP	9	96	6
TAP	9	192	0
TAP	9	192	7
TAP	9	240	1
TAP	9	240	6
TAP	9	288	2
TAP	9	288	5
TAP	10	0	1
TAP	10	48	4
TAP	10	96	2
TAP	10	144	5
TAP	10	192	3
TAP	10	240	6
TAP	10	288	4
HLD	10	336	7	96
TAP	11	48	0
TAP	11	96	0
TAP	11	192	1
TAP	11	192	4
TAP	11	264	3
TAP	11	264	6
TAP	11	336	2
TAP	11	336	5
TAP	12	48	0
TAP	12	48	1
TAP	12	96	0
TAP	12	96	1
TAP	12	192	3
TAP	12	192	6
TAP	12	264	1
TAP	12	264	4
TAP	12	336	2
TAP	12	336	5
TAP	13	48	6
TAP	13	48	7
TAP	13	96	6
TAP	13	96	7
TAP	13	192	1
TAP	13	192	4
TAP	13	264	3
TAP	13	264	6
TAP	13	336	0
TAP	13	336	7
TAP	14	0	6
TAP	14	48	3
TAP	14	96	5
TAP	14	144	2
TAP	14	192	4
TAP	14	240	1
TAP	14	288	3
HLD	14	336	0	96
TAP	15	48	7
TAP	15	96	7
TAP	15	192	4
TAP	15	192	6
TAP	15	264	1
TAP	15	264	3
TAP	15	336	2
TAP	15	336	5
TAP	16	48	6
TAP	16	48	7
TAP	16	96	6
TAP	16	96	7
TAP	16	192	1
TAP	16	192	3
TAP	16	264	4
TAP	16	264	6
TAP	16	336	2
TAP	16	336	5
STR	17	0	2
SI_	17	0	2	96	48	7
STR	17	192	7
SI_	17	192	7	96	48	3
STR	18	0	3
SI_	18	0	3	96	48	6
STR	18	192	6
SI_	18	192	6	96	48	2
STR	19	0	5
SI_	19	0	5	96	48	0
STR	19	192	0
SI_	19	192	0	96	48	4
STR	20	0	4
SI_	20	0	4	96	48	1
STR	20	192	1
SI_	20	192	1	96	48	5
TAP	21	0	3
TAP	21	48	4
TAP	21	96	2
TAP	21	144	4
TAP	21	192	1
TAP	21	240	4
TAP	21	288	0
TAP	21	336	0
TAP	22	0	4
TAP	22	48	3
TAP	22	96	5
TAP	22	144	3
TAP	22	192	6
TAP	22	240	3
TAP	22	288	7
TAP	22	336	7
TAP	23	0	0
TAP	23	48	4
TAP	23	96	1
TAP	23	144	5
TAP	23	192	2
TAP	23	240	6
TAP	23	288	3
TAP	23	336	7
STR	24	0	4
SCR	24	0	4	96	192	3
BRK	24	288	7
STR	25	0	3
SI_	25	0	3	96	48	0
STR	25	0	7
SI_	25	0	7	96	48	4
TAP	25	192	1
TAP	25	240	4
TAP	25	288	3
HLD	25	336	6	96
TAP	26	48	1
TAP	26	96	0
TAP	26	144	1
TAP	26	192	6
TAP	26	240	3
TAP	26	288	4
HLD	26	336	1	96
TAP	27	48	6
TAP	27	96	7
TAP	27	144	6
TAP	27	192	2
TAP	27	240	3
TAP	27	288	1
TAP	27	336	1
STR	28	0	7
SI_	28	0	7	96	48	3
TAP	28	96	1
STR	28	144	1
SI_	28	144	1	96	48	5
TAP	28	240	7
TAP	28	288	7
TAP	29	0	5
TAP	29	48	3
TAP	29	96	6
TAP	29	144	4
TAP	29	192	7
TAP	29	240	7
TAP	29	288	0
TAP	29	336	0
HLD	30	0	5	96
TAP	30	96	7
HLD	30	144	7	96
TAP	30	240	6
TAP	30	288	0
TAP	30	288	5
TAP	31	0	2
TAP	31	48	4
TAP	31	96	1
TAP	31	144	3
TAP	31	192	0
TAP	31	240	0
TAP	31	288	7
TAP	31	336	7
HLD	32	0	2	96
TAP	32	96	0
HLD	32	144	0	96
TAP	32	240	1
TAP	32	288	2
TAP	32	288	7
BST	33	0	0
SI_	33	0	0	96	48	3
BST	33	0	4
SI_	33	0	4	96	48	7
TAP	33	192	6
TAP	33	240	3
TAP	33	288	4
TAP	33	336	1
HLD	34	0	1	96
TAP	34	96	6
TAP	34	144	7
TAP	34	192	6
TAP	34	240	1
TAP	34	288	4
TAP	34	336	3
HLD	35	0	6	96
TAP	35	96	1
TAP	35	144	0
TAP	35	192	1
TAP	35	240	6
TAP	35	288	7
TAP	35	336	6
STR	36	0	0
SI_	36	0	0	96	48	4
TAP	36	96	6
STR	36	144	6
SI_	36	144	6	96	48	2
TAP	36	240	0
TAP	36	288	0
TAP	37	0	7
TAP	37	48	0
TAP	37	96	6
TAP	37	144	0
TAP	37	192	5
TAP	37	240	0
TAP	37	288	4
TAP	37	336	4
TAP	38	0	0
TAP	38	48	7
TAP	38	96	1
TAP	38	144	7
TAP	38	192	2
TAP	38	240	7
TAP	38	288	3
TAP	38	336	3
TAP	39	0	4
TAP	39	48	0
TAP	39	96	5
TAP	39	144	1
TAP	39	192	6
TAP	39	240	2
TAP	39	288	7
TAP	39	336	3
STR	40	0	0
SCR	40	0	0	96	192	7
BRK	40	288	0
HLD	41	0	1	576
TAP	41	0	7
TAP	41	96	6
TAP	41	192	5
TAP	41	288	4
TAP	42	0	3
TAP	42	96	2
TAP	42	192	0
TAP	42	288	2
TAP	42	288	7
TAP	43	0	0
HLD	43	0	6	576
TAP	43	96	1
TAP	43	192	2
TAP	43	288	3
TAP	44	0	4
TAP	44	96	5
TAP	44	192	7
TAP	44	288	0
TAP	44	288	5
TAP	45	0	1
TAP	45	48	3
TAP	45	96	2
TAP	45	144	2
TAP	45	192	6
TAP	45	240	4
TAP	45	288	5
TAP	45	336	5
TAP	46	48	1
TAP	46	96	0
TAP	46	144	1
TAP	46	192	6
TAP	46	240	7
TAP	46	288	6
TAP	47	0	2
TAP	47	48	3
TAP	47	96	1
TAP	47	144	1
TAP	47	192	5
TAP	47	240	4
TAP	47	288	6
TAP	47	336	6
TAP	48	48	0
TAP	48	48	1
TAP	48	144	6
TAP	48	144	7
TAP	48	192	5
TAP	48	240	3
TAP	48	288	4
TAP	48	336	2
STR	49	0	1
SCL	49	0	1	96	96	6
TAP	49	240	4
TAP	49	288	3
TAP	49	336	4
HLD	50	0	1	144
HLD	50	144	3	144
HLD	50	288	4	96
HLD	51	0	6	192
HLD	51	192	4	96
TAP	51	288	3
HLD	51	336	3	192
TAP	52	144	2
HLD	52	192	2	96
TAP	52	288	5
STR	53	0	1
SI_	53	0	1	96	48	4
STR	53	144	5
SI_	53	144	5	96	48	0
TAP	53	240	1
TAP	53	288	1
TAP	53	336	2
STR	54	0	2
SI_	54	0	2	96	48	7
TAP	54	144	6
STR	54	192	6
SI_	54	192	6	96	48	3
STR	54	288	1
SXR	54	288	1	96	192	6
TAP	55	240	5
TAP	55	288	0
TAP	55	336	7
TAP	56	0	2
BST	56	48	6
SI_	56	48	6	96	48	2
BST	56	144	0
SI_	56	144	0	96	48	4
BRK	56	240	7
BRK	56	288	7
TAP	57	0	3
TAP	57	0	4
BRK	57	96	1
BRK	57	96	6
TAP	57	192	0
TAP	57	240	7
TAP	57	288	0
TAP	57	336	7
TAP	58	0	1
TAP	58	48	3
TAP	58	96	2
TAP	58	144	2
TAP	58	192	6
TAP	58	240	4
TAP	58	288	5
TAP	58	336	5
TAP	59	0	1
TAP	59	48	0
TAP	59	96	2
TAP	59	144	2
TAP	59	192	6
TAP	59	240	7
TAP	59	288	5
TAP	59	336	5
TAP	60	0	0
TAP	60	48	7
TAP	60	96	1
TAP	60	144	6
STR	60	192	2
SCR	60	192	2	96	48	5
TAP	60	288	7
TAP	61	0	6
TAP	61	48	5
TAP	61	96	4
TAP	61	144	3
TAP	61	192	7
TAP	61	240	6
TAP	61	288	5
TAP	61	336	4
TAP	62	0	0
TAP	62	48	1
TAP	62	96	2
TAP	62	144	3
TAP	62	192	1
TAP	62	240	2
TAP	62	288	3
TAP	62	336	4
TAP	63	0	2
TAP	63	0	5
TAP	63	96	0
TAP	63	96	7
TAP	63	192	1
TAP	63	240	4
TAP	63	288	3
TAP	63	336	6
TAP	64	0	2
TAP	64	48	7
TAP	64	96	0
TAP	64	144	5
TAP	64	192	4
TAP	64	192	6
TAP	64	288	1
STR	64	288	3
SCL	64	288	3	96	384	4
TAP	66	96	0
TAP	66	192	1
TAP	66	264	2
TAP	66	336	3
TAP	67	0	3
TAP	67	240	4
TAP	67	288	3
TAP	67	336	4
TAP	68	0	3
TAP	68	144	2
TAP	68	240	5
TAP	68	288	4
TAP	68	336	5
TAP	69	0	5
TAP	69	240	2
TAP	69	288	3
TAP	69	336	2
TAP	70	0	2
TAP	70	144	7
TAP	70	192	7
TAP	70	288	0
TAP	71	0	1
TAP	71	0	6
TAP	71	144	2
TAP	71	144	5
STR	71	288	3
SXR	71	288	3	96	192	0
STR	71	288	4
SXL	71	288	4	96	192	7
TAP	72	288	1
TAP	72	288	6
HLD	73	0	0	96
TAP	73	96	7
TAP	73	144	1
TAP	73	144	6
TAP	73	240	2
TAP	73	288	4
TAP	73	336	3
HLD	74	0	5	96
TAP	74	96	4
STR	74	144	4
SCL	74	144	4	96	72	1
TAP	74	240	0
TAP	75	0	0
TAP	75	0	6
TAP	75	96	2
TAP	75	96	3
TAP	75	144	2
STR	75	144	3
SCR	75	144	3	96	72	6
TAP	75	240	7
TAP	76	0	1
TAP	76	0	7
TAP	76	96	4
TAP	76	96	5
STR	76	144	4
SI_	76	144	4	96	48	0
TAP	76	144	5
TAP	76	240	7
TAP	77	0	0
TAP	77	48	1
TAP	77	96	2
TAP	77	144	3
TAP	77	192	4
TAP	77	240	5
TAP	77	288	6
TAP	77	336	7
TAP	78	0	0
TAP	78	0	2
TAP	78	72	5
TAP	78	72	7
TAP	78	144	1
TAP	78	144	6
TAP	78	192	1
TAP	78	192	6
TAP	78	264	3
TAP	78	264	4
TAP	78	336	0
TAP	78	336	7
BST	79	0	0
SCR	79	0	0	96	48	3
BST	79	0	7
SCL	79	0	7	96	48	4
TAP	79	192	2
TAP	79	240	3
TAP	79	288	1
TAP	79	336	1
TAP	80	0	5
TAP	80	48	4
TAP	80	96	6
TAP	80	144	6
TAP	80	192	0
TAP	80	240	7
TAP	80	288	1
TAP	80	288	6
STR	81	0	1
SI_	81	0	1	96	48	5
TAP	81	96	7
TAP	81	144	7
TAP	81	240	6
TAP	81	288	3
TAP	81	336	4
TAP	82	0	5
TAP	82	0	7
TAP	82	96	0
TAP	82	96	2
TAP	82	192	1
TAP	82	192	6
TAP	82	240	1
TAP	82	240	6
TAP	83	0	1
TAP	83	48	4
TAP	83	96	2
TAP	83	144	0
TAP	83	192	1
TAP	83	240	3
TAP	83	288	2
TAP	83	336	2
TAP	84	0	6
TAP	84	48	3
TAP	84	96	5
TAP	84	144	7
TAP	84	192	6
TAP	84	240	4
TAP	84	288	5
TAP	84	336	5
TAP	85	0	0
TAP	85	48	7
TAP	85	96	2
TAP	85	144	3
TAP	85	192	0
TAP	85	240	7
TAP	85	288	4
TAP	85	336	5
TAP	86	0	3
TAP	86	48	4
TAP	86	96	1
TAP	86	144	0
TAP	86	192	3
TAP	86	240	4
TAP	86	288	7
TAP	86	336	6
TAP	87	0	0
TAP	87	48	7
TAP	87	96	1
TAP	87	144	3
TAP	87	192	0
TAP	87	240	7
TAP	87	288	4
TAP	87	336	6
TAP	88	0	0
TAP	88	24	7
TAP	88	48	0
TAP	88	72	7
TAP	88	96	0
TAP	88	120	7
TAP	88	144	0
TAP	88	168	7
TAP	88	192	0
TAP	88	216	7
TAP	88	240	0
TAP	88	264	7
TAP	88	288	0
TAP	88	312	7
TAP	88	336	0
TAP	88	360	7
STR	89	0	0
SCR	89	0	0	96	672	7

T_REC_TAP	475
T_REC_BRK	11
T_REC_XTP	0
T_REC_HLD	27
T_REC_XHO	0
T_REC_STR	33
T_REC_BST	7
T_REC_XST	0
T_REC_TTP	0
T_REC_THO	0
T_REC_SLD	40
T_REC_ALL	593
T_NUM_TAP	508
T_NUM_BRK	18
T_NUM_HLD	27
T_NUM_SLD	40
T_NUM_ALL	593
T_JUDGE_TAP	526
T_JUDGE_HLD	104
T_JUDGE_SLD	40
T_JUDGE_ALL	670
TTM_EACHPAIRS	70
TTM_SCR_TAP	254000
TTM_SCR_BRK	46800
TTM_SCR_HLD	27000
TTM_SCR_SLD	60000
TTM_SCR_ALL	387800
TTM_SCR_S	374450
TTM_SCR_SS	386000
TTM_RAT_ACV	10046

