VERSION	0.00.00	1.03.00
FES_MODE	0
BPM_DEF	190.000	190.000	190.000	190.000
MET_DEF	4	4
RESOLUTION	384
CLK_DEF	384
COMPATIBLE_CODE	MA2

BPM	0	0	190.000
MET	0	0	4	4

TAP	1	0	0
TAP	1	0	1
TAP	1	96	6
TAP	1	96	7
BRK	1	192	0
BRK	1	240	0
TAP	2	0	1
TAP	2	96	1
TAP	2	288	2
TAP	2	288	3
TAP	3	96	3
TAP	3	96	4
TAP	3	288	4
TAP	3	288	5
TAP	4	0	6
TAP	4	96	6
TAP	4	288	0
TAP	4	288	7
TAP	5	0	1
TAP	5	96	2
TAP	5	192	3
TAP	5	288	4
TAP	6	0	5
TAP	6	96	5
TAP	6	288	3
TAP	6	288	4
TAP	7	96	0
TAP	7	96	1
TAP	7	288	6
TAP	7	288	7
BRK	8	0	0
BRK	8	48	0
BRK	8	192	7
BRK	8	240	7
TAP	9	0	4
TAP	9	0	5
TAP	9	96	3
TAP	9	96	4
TAP	9	192	2
TAP	9	192	3
TAP	9	288	0
TAP	9	288	7
TAP	10	0	6
TAP	10	96	5
TAP	10	192	4
TAP	10	288	2
TAP	10	288	3
TAP	11	0	1
TAP	11	96	2
TAP	11	192	3
TAP	11	288	4
TAP	11	288	5
TAP	12	0	6
TAP	12	96	7
TAP	12	192	0
TAP	12	288	1
TAP	12	288	6
TAP	13	0	2
TAP	13	96	3
TAP	13	192	4
TAP	13	288	2
TAP	13	288	5
TAP	14	0	1
TAP	14	96	2
TAP	14	192	3
TAP	14	288	4
TAP	14	288	5
TAP	15	0	6
TAP	15	96	5
TAP	15	192	4
TAP	15	288	2
TAP	15	288	3
TAP	16	0	1
TAP	16	96	0
TAP	16	192	7
TAP	16	288	1
TAP	16	288	6
HLD	17	0	5	288
TAP	17	96	4
TAP	17	288	4
HLD	18	0	2	288
TAP	18	96	3
TAP	18	288	3
HLD	19	0	6	288
TAP	19	96	4
TAP	19	288	5
HLD	20	0	1	288
TAP	20	96	3
TAP	20	288	2
TAP	21	0	6
TAP	21	96	7
TAP	21	192	6
TAP	21	288	0
TAP	21	288	5
TAP	22	0	1
TAP	22	96	0
TAP	22	192	1
TAP	22	288	2
TAP	22	288	7
TAP	23	0	5
TAP	23	96	4
TAP	23	192	3
STR	23	288	2
SCL	23	288	2	96	192	5
BRK	24	288	0
BRK	24	288	7
TAP	25	0	1
TAP	25	96	2
TAP	25	192	3
TAP	25	240	4
TAP	25	288	3
TAP	26	0	6
TAP	26	96	5
TAP	26	192	4
TAP	26	240	3
TAP	26	288	4
TAP	27	0	0
TAP	27	96	1
TAP	27	192	2
TAP	27	240	3
TAP	27	288	2
TAP	28	0	7
TAP	28	96	6
TAP	28	192	5
TAP	28	240	4
TAP	28	288	5
TAP	29	0	2
TAP	29	96	1
TAP	29	192	0
TAP	29	288	6
TAP	29	288	7
TAP	30	0	5
TAP	30	96	6
TAP	30	192	7
TAP	30	288	0
TAP	30	288	1
TAP	31	0	2
TAP	31	48	3
TAP	31	96	2
TAP	31	192	5
TAP	31	240	4
TAP	31	288	5
TAP	32	0	3
TAP	32	0	4
TAP	32	96	2
TAP	32	96	5
TAP	32	192	1
TAP	32	192	6
TAP	32	288	0
TAP	32	288	7
STR	33	0	1
SI_	33	0	1	96	48	5
TAP	33	192	6
TAP	33	288	5
TAP	34	0	4
TAP	34	96	2
TAP	34	96	3
TAP	34	192	1
TAP	34	240	3
TAP	34	288	2
TAP	35	0	7
TAP	35	96	0
TAP	35	192	1
TAP	35	288	2
TAP	36	0	3
TAP	36	96	4
TAP	36	96	5
TAP	36	192	6
TAP	36	240	4
TAP	36	288	5
TAP	37	0	2
TAP	37	48	3
TAP	37	96	2
TAP	37	144	3
TAP	37	192	2
TAP	37	288	0
TAP	37	288	4
TAP	38	0	5
TAP	38	48	4
TAP	38	96	5
TAP	38	144	4
TAP	38	192	5
TAP	38	288	3
TAP	38	288	7
TAP	39	0	0
TAP	39	48	7
TAP	39	96	0
TAP	39	144	7
TAP	39	192	0
TAP	39	288	1
TAP	39	288	6
TAP	40	0	0
TAP	40	0	7
TAP	40	96	1
TAP	40	96	6
TAP	40	192	2
TAP	40	192	5
STR	40	288	3
SCL	40	288	3	96	240	0
STR	40	288	4
SUL	40	288	4	96	240	7
TAP	42	0	0
TAP	42	0	7
TAP	42	96	1
TAP	42	96	6
TAP	42	192	2
TAP	42	192	5
STR	42	288	3
SUR	42	288	3	96	240	0
STR	42	288	4
SCR	42	288	4	96	240	7
TAP	44	0	0
TAP	44	0	7
TAP	44	96	1
TAP	44	96	6
TAP	44	192	2
TAP	44	192	5
TAP	44	288	3
TAP	44	288	4
TAP	45	0	2
TAP	45	96	3
TAP	45	192	2
TAP	45	288	1
TAP	45	288	4
TAP	46	0	0
TAP	46	96	7
TAP	46	192	0
TAP	46	288	1
TAP	46	288	6
TAP	47	0	5
TAP	47	96	4
TAP	47	192	5
TAP	47	288	3
TAP	47	288	6
TAP	48	0	7
TAP	48	96	0
TAP	48	192	7
TAP	48	288	1
TAP	48	288	6
HLD	49	0	2	192
HLD	49	192	3	192
HLD	50	0	4	192
TAP	50	192	5
TAP	50	288	4
HLD	51	0	5	192
HLD	51	192	4	192
HLD	52	0	3	192
TAP	52	192	2
TAP	52	288	3
HLD	53	0	1	192
TAP	53	192	0
TAP	53	288	7
HLD	54	0	6	192
TAP	54	192	7
STR	54	288	0
SCR	54	288	0	96	288	7
TAP	56	0	0
TAP	56	0	7
TAP	56	96	3
TAP	56	96	4
TAP	56	192	1
TAP	56	192	6
TAP	56	240	1
TAP	56	240	6
BRK	56	288	1
BRK	56	288	6
TAP	57	0	0
TAP	57	0	5
TAP	57	96	2
TAP	57	96	7
TAP	57	192	1
TAP	57	240	0
TAP	57	288	1
TAP	57	336	0
TAP	58	0	1
TAP	58	96	2
TAP	58	96	7
TAP	58	192	6
TAP	58	240	7
TAP	58	288	6
TAP	58	336	7
TAP	59	0	6
TAP	59	96	0
TAP	59	96	5
TAP	59	192	4
TAP	59	240	3
TAP	59	288	4
TAP	59	336	3
TAP	60	0	4
TAP	60	96	1
TAP	60	96	3
TAP	60	192	4
TAP	60	192	6
TAP	60	288	0
TAP	60	288	7
TAP	61	0	1
TAP	61	48	1
TAP	61	96	7
TAP	61	144	7
TAP	61	192	0
TAP	61	240	0
TAP	61	288	7
TAP	62	0	6
TAP	62	48	6
TAP	62	96	0
TAP	62	144	0
TAP	62	192	7
TAP	62	240	7
TAP	62	288	0
TAP	63	0	3
TAP	63	0	4
TAP	63	96	1
TAP	63	96	6
TAP	63	192	3
TAP	63	240	4
TAP	63	288	3
TAP	63	336	4
TAP	64	0	3
TAP	64	96	4
TAP	64	96	6
TAP	64	192	1
TAP	64	192	3
STR	64	288	0
SXL	64	288	0	96	384	3
STR	64	288	7
SXR	64	288	7	96	384	4
TAP	66	96	2
TAP	66	192	3
TAP	66	288	4
STR	67	0	5
SCL	67	0	5	96	96	2
TAP	67	288	1
TAP	68	0	1
TAP	68	192	0
TAP	68	288	1
STR	69	0	2
SCR	69	0	2	96	96	5
TAP	69	288	6
TAP	70	0	6
TAP	70	192	7
TAP	70	288	6
TAP	71	0	4
TAP	71	0	5
TAP	71	192	2
TAP	71	192	3
STR	72	0	3
SCL	72	0	3	96	144	0
STR	72	0	4
SCR	72	0	4	96	144	7
TAP	73	0	2
TAP	73	96	3
TAP	73	192	4
TAP	73	288	2
TAP	73	288	5
TAP	74	0	6
TAP	74	96	7
TAP	74	192	0
TAP	74	288	1
TAP	74	288	6
TAP	75	0	5
TAP	75	96	4
TAP	75	96	5
TAP	75	192	2
TAP	75	288	2
TAP	75	288	3
TAP	76	0	1
TAP	76	96	0
TAP	76	96	1
TAP	76	192	6
TAP	76	288	6
TAP	76	288	7
TAP	77	0	4
TAP	77	0	5
TAP	77	96	2
TAP	77	96	3
TAP	77	192	4
TAP	77	192	6
TAP	77	288	1
TAP	77	288	3
TAP	78	0	7
TAP	78	48	7
TAP	78	96	0
TAP	78	96	6
TAP	78	192	0
TAP	78	240	0
TAP	78	288	1
TAP	78	288	7
BST	79	0	6
SI_	79	0	6	96	48	2
TAP	79	192	1
TAP	79	240	1
TAP	79	288	7
TAP	79	336	7
TAP	80	0	0
TAP	80	48	0
TAP	80	96	6
TAP	80	144	6
TAP	80	192	0
TAP	80	240	0
TAP	80	288	7
TAP	81	0	0
TAP	81	0	1
TAP	81	96	2
TAP	81	96	7
TAP	81	192	1
TAP	81	240	3
TAP	81	288	2
TAP	82	0	6
TAP	82	0	7
TAP	82	96	0
TAP	82	96	5
TAP	82	192	6
TAP	82	240	4
TAP	82	288	5
TAP	83	0	1
TAP	83	48	0
TAP	83	96	1
TAP	83	192	6
TAP	83	240	7
TAP	83	288	6
TAP	84	0	0
TAP	84	48	7
TAP	84	96	0
TAP	84	192	1
TAP	84	192	6
TAP	84	288	3
TAP	84	288	4
TAP	85	0	1
TAP	85	48	0
TAP	85	96	1
TAP	85	144	0
TAP	85	192	1
TAP	85	288	3
TAP	85	288	7
TAP	86	0	6
TAP	86	48	7
TAP	86	96	6
TAP	86	144	7
TAP	86	192	6
TAP	86	288	0
TAP	86	288	4
TAP	87	0	3
TAP	87	48	4
TAP	87	96	3
TAP	87	144	4
TAP	87	192	3
TAP	87	288	1
TAP	87	288	6
TAP	88	0	0
TAP	88	48	7
TAP	88	96	1
TAP	88	144	6
TAP	88	192	2
TAP	88	240	5
TAP	88	288	3
TAP	88	336	4
STR	89	0	3
SCL	89	0	3	96	480	4

T_REC_TAP	406
T_REC_BRK	10
T_REC_XTP	0
T_REC_HLD	12
T_REC_XHO	0
T_REC_STR	14
T_REC_BST	1
T_REC_XST	0
T_REC_TTP	0
T_REC_THO	0
T_REC_SLD	15
T_REC_ALL	458
T_NUM_TAP	420
T_NUM_BRK	11
T_NUM_HLD	12
T_NUM_SLD	15
T_NUM_ALL	458
T_JUDGE_TAP	431
T_JUDGE_HLD	56
T_JUDGE_SLD	15
T_JUDGE_ALL	502
TTM_EACHPAIRS	91
TTM_SCR_TAP	210000
TTM_SCR_BRK	28600
TTM_SCR_HLD	12000
TTM_SCR_SLD	22500
TTM_SCR_ALL	273100
TTM_SCR_S	263850
TTM_SCR_SS	272000
TTM_RAT_ACV	10040

