VERSION	0.00.00	1.03.00
FES_MODE	0
BPM_DEF	190.000	190.000	190.000	190.000
MET_DEF	4	4
RESOLUTION	384
CLK_DEF	384
COMPATIBLE_CODE	MA2

BPM	0	0	190.000
MET	0	0	4	4

TAP	2	0	3
TAP	3	0	3
TAP	4	0	4
TAP	5	0	4
TAP	6	0	2
TAP	6	0	3
TAP	7	0	2
TAP	7	0	3
TAP	8	0	4
TAP	8	0	5
BRK	9	0	4
BRK	9	0	5
TAP	10	0	4
TAP	10	96	4
TAP	10	192	4
TAP	11	0	5
TAP	11	96	5
TAP	11	192	5
TAP	12	0	6
TAP	12	96	6
TAP	12	192	6
TAP	13	0	7
TAP	13	96	7
TAP	13	192	0
TAP	13	192	7
TAP	14	0	0
TAP	14	96	0
TAP	14	192	0
TAP	15	0	1
TAP	15	96	1
TAP	15	192	1
TAP	16	0	2
TAP	16	96	2
TAP	16	192	2
STR	17	0	3
SI_	17	0	3	96	288	6
STR	19	0	6
SI_	19	0	6	96	288	1
STR	21	0	1
SI_	21	0	1	96	288	4
STR	23	0	4
SI_	23	0	4	96	288	7
TAP	25	0	1
TAP	25	96	1
TAP	25	192	0
TAP	25	192	1
TAP	26	0	2
TAP	26	96	2
TAP	26	192	2
TAP	26	192	3
TAP	27	0	5
TAP	27	96	5
TAP	27	192	4
TAP	27	192	5
TAP	28	0	6
TAP	28	96	6
TAP	28	192	6
TAP	28	192	7
TAP	29	0	6
TAP	29	96	7
TAP	29	192	0
TAP	29	192	6
TAP	30	0	5
TAP	30	96	4
TAP	30	192	3
TAP	30	192	5
TAP	31	0	2
TAP	31	96	3
TAP	31	192	2
TAP	31	192	4
TAP	32	0	1
TAP	32	96	0
TAP	32	192	1
TAP	32	192	7
TAP	33	0	1
TAP	33	96	1
TAP	33	192	0
TAP	33	288	0
HLD	34	0	7	192
TAP	34	192	0
TAP	35	0	6
TAP	35	96	6
TAP	35	192	7
TAP	35	288	7
HLD	36	0	0	192
TAP	36	192	7
TAP	37	0	0
TAP	37	96	0
TAP	37	192	1
TAP	37	288	1
TAP	38	0	2
TAP	38	96	2
TAP	38	192	3
TAP	38	288	3
TAP	39	0	4
TAP	39	96	4
TAP	39	192	5
TAP	39	288	5
HLD	40	0	6	192
TAP	40	192	7
TAP	41	0	7
TAP	41	96	7
TAP	41	192	7
TAP	42	0	0
TAP	42	0	6
TAP	42	192	0
TAP	42	192	6
TAP	43	0	0
TAP	43	96	0
TAP	43	192	0
TAP	44	0	1
TAP	44	0	7
TAP	44	192	1
TAP	44	192	7
TAP	45	0	4
TAP	45	96	4
TAP	45	192	4
TAP	46	0	3
TAP	46	0	5
TAP	46	192	3
TAP	46	192	5
TAP	47	0	3
TAP	47	96	3
TAP	47	192	3
BRK	48	0	2
BRK	48	0	4
HLD	49	0	0	384
HLD	51	0	2	384
HLD	53	0	4	384
HLD	55	0	6	384
TAP	57	0	6
TAP	57	96	6
TAP	57	192	7
TAP	57	288	7
HLD	58	0	0	192
TAP	58	192	7
TAP	59	0	1
TAP	59	96	1
TAP	59	192	0
TAP	59	288	0
HLD	60	0	7	192
TAP	60	192	0
TAP	61	0	7
TAP	61	96	7
TAP	61	192	6
TAP	61	288	6
TAP	62	0	5
TAP	62	96	5
TAP	62	192	4
TAP	62	288	4
TAP	63	0	3
TAP	63	96	3
TAP	63	192	2
TAP	63	288	2
HLD	64	0	1	192
TAP	64	192	0
STR	65	0	0
SI_	65	0	0	96	288	5
STR	67	0	5
SI_	67	0	5	96	288	2
STR	69	0	2
SI_	69	0	2	96	288	7
STR	71	0	7
SI_	71	0	7	96	288	4
TAP	73	0	3
TAP	73	96	4
TAP	73	192	3
TAP	73	288	4
TAP	74	0	2
TAP	74	96	4
TAP	74	192	2
TAP	74	288	4
TAP	75	0	3
TAP	75	96	5
TAP	75	192	3
TAP	75	288	5
HLD	76	0	3	192
TAP	76	192	4
TAP	77	0	5
TAP	77	96	5
TAP	77	192	6
TAP	77	288	6
HLD	78	0	7	192
TAP	78	192	0
TAP	79	0	6
TAP	79	96	6
TAP	79	192	5
TAP	79	288	5
TAP	80	0	4
TAP	80	96	4
TAP	80	192	3
TAP	80	288	3
TAP	81	0	2
TAP	81	96	2
TAP	81	192	1
TAP	81	288	1
HLD	82	0	0	192
TAP	82	192	7
TAP	83	0	0
TAP	83	96	0
TAP	83	192	1
TAP	83	288	1
TAP	84	0	2
TAP	84	96	2
TAP	84	192	3
TAP	84	192	4
TAP	85	0	4
TAP	85	96	4
TAP	85	192	5
TAP	85	288	5
TAP	86	0	6
TAP	86	96	6
TAP	86	192	7
TAP	86	288	7
TAP	87	0	0
TAP	87	96	0
TAP	87	192	2
TAP	87	288	2
TAP	88	0	4
TAP	88	96	4
TAP	88	192	6
TAP	88	288	6
HLD	89	0	0	1152
HLD	89	0	7	1152

T_REC_TAP	189
T_REC_BRK	4
T_REC_XTP	0
T_REC_HLD	15
T_REC_XHO	0
T_REC_STR	8
T_REC_BST	0
T_REC_XST	0
T_REC_TTP	0
T_REC_THO	0
T_REC_SLD	8
T_REC_ALL	224
T_NUM_TAP	197
T_NUM_BRK	4
T_NUM_HLD	15
T_NUM_SLD	8
T_NUM_ALL	224
T_JUDGE_TAP	201
T_JUDGE_HLD	116
T_JUDGE_SLD	8
T_JUDGE_ALL	325
TTM_EACHPAIRS	22
TTM_SCR_TAP	98500
TTM_SCR_BRK	10400
TTM_SCR_HLD	15000
TTM_SCR_SLD	12000
TTM_SCR_ALL	135900
TTM_SCR_S	131450
TTM_SCR_SS	135500
TTM_RAT_ACV	10029

