VERSION	0.00.00	1.03.00
FES_MODE	0
BPM_DEF	123.000	123.000	123.000	123.000
MET_DEF	4	4
RESOLUTION	384
CLK_DEF	384
COMPATIBLE_CODE	MA2

BPM	0	0	123.000
MET	0	0	4	4

TAP	1	288	0
TAP	1	336	7
STR	2	0	6
SCL	2	0	6	96	288	1
STR	3	0	0
SCR	3	0	0	96	96	4
STR	3	192	7
SI_	3	192	7	96	48	3
STR	3	288	0
SI_	3	288	0	96	48	4
STR	4	0	7
SCL	4	0	7	96	96	3
STR	4	192	0
SSL	4	192	0	96	96	4
HLD	5	0	5	192
TAP	5	192	2
TAP	5	288	7
TAP	5	336	0
STR	6	0	1
SCR	6	0	1	96	96	6
HLD	6	192	7	72
HLD	6	264	6	72
TAP	6	336	5
TAP	7	0	2
STR	7	0	4
SI_	7	0	4	96	48	1
TAP	7	96	0
STR	7	192	3
SI_	7	192	3	96	48	6
TAP	7	192	5
TAP	7	288	7
STR	8	0	3
SCL	8	0	3	96	192	4
STR	8	0	4
SCR	8	0	4	96	192	3
TAP	9	0	0
TAP	9	0	7
TAP	9	144	3
TAP	9	144	4
BRK	9	288	1
BRK	9	288	6
STR	10	0	6
SI_	10	0	6	96	48	4
STR	10	0	7
SI_	10	0	7	96	48	3
TAP	10	96	6
TAP	10	96	7
STR	10	192	2
SUL	10	192	2	96	48	6
TAP	10	264	5
TAP	10	336	5
STR	11	0	0
SI_	11	0	0	96	48	2
STR	11	0	7
SI_	11	0	7	96	48	3
TAP	11	96	0
TAP	11	96	7
STR	11	192	4
SUR	11	192	4	96	48	1
TAP	11	264	2
TAP	11	336	2
STR	12	0	0
SI_	12	0	0	96	48	4
STR	12	0	7
SI_	12	0	7	96	48	5
TAP	12	96	0
STR	12	96	7
SI_	12	96	7	96	48	3
STR	12	192	2
SI_	12	192	2	96	48	0
TAP	12	192	7
TAP	12	288	2
TAP	12	288	7
TAP	12	336	7
TAP	13	48	5
TAP	13	96	0
TAP	13	96	1
TAP	13	144	2
TAP	13	192	6
TAP	13	192	7
TAP	13	240	4
TAP	13	240	5
TAP	13	288	2
TAP	13	288	3
BRK	13	336	0
BRK	13	336	7
STR	14	0	1
SI_	14	0	1	96	48	4
STR	14	0	5
SI_	14	0	5	96	48	0
TAP	14	192	2
STR	14	192	3
SCR	14	192	3	96	48	7
TAP	14	264	0
TAP	14	336	0
TAP	15	0	2
TAP	15	48	1
TAP	15	48	3
TAP	15	96	0
TAP	15	96	4
TAP	15	144	5
TAP	15	144	7
TAP	15	192	6
TAP	15	240	0
TAP	15	240	7
STR	15	288	3
SCL	15	288	3	96	48	1
STR	15	288	4
SUL	15	288	4	96	48	0
STR	16	0	3
SUR	16	0	3	96	192	4
STR	16	0	4
SCR	16	0	4	96	192	3
TAP	17	0	2
TAP	17	24	3
TAP	17	48	2
TAP	17	72	3
TAP	17	96	0
TAP	17	120	7
TAP	17	144	0
TAP	17	168	7
TAP	17	192	1
TAP	17	192	6
TAP	17	240	3
TAP	17	240	4
BRK	17	312	0
BRK	17	312	7
HLD	18	0	1	144
HLD	18	144	2	144
TAP	18	288	3
HLD	19	0	6	144
HLD	19	144	5	144
TAP	19	288	4
TAP	20	0	2
TAP	20	48	3
TAP	20	96	4
TAP	20	144	5
TAP	20	240	1
TAP	20	240	6
TAP	20	336	0
TAP	20	336	7
TAP	21	0	0
STR	21	0	7
SI_	21	0	7	96	48	2
STR	21	96	4
SUL	21	96	4	96	96	3
HLD	22	0	0	96
TAP	22	0	5
TAP	22	96	1
HLD	22	144	3	96
TAP	22	144	7
TAP	22	240	2
TAP	22	288	1
TAP	22	288	4
TAP	23	0	2
HLD	23	0	7	96
TAP	23	96	6
TAP	23	144	0
HLD	23	144	4	96
TAP	23	240	5
TAP	23	288	3
TAP	23	288	6
HLD	24	0	0	96
TAP	24	0	5
TAP	24	96	1
TAP	24	144	2
HLD	24	144	7	96
TAP	24	240	6
TAP	24	288	2
TAP	24	288	5
STR	25	0	2
SI_	25	0	2	96	48	0
STR	25	0	7
SI_	25	0	7	96	48	3
TAP	25	96	2
TAP	25	96	7
TAP	25	192	4
TAP	25	192	5
TAP	25	264	2
TAP	25	264	3
TAP	25	336	1
TAP	25	336	6
HLD	26	0	2	96
TAP	26	48	4
TAP	26	96	3
HLD	26	144	0	96
TAP	26	192	2
TAP	26	240	1
TAP	26	288	6
TAP	26	288	7
TAP	26	336	1
TAP	26	336	3
HLD	27	0	5	96
TAP	27	48	3
TAP	27	96	4
HLD	27	144	7	96
TAP	27	192	5
TAP	27	240	6
TAP	27	288	0
TAP	27	288	1
TAP	27	336	4
TAP	27	336	6
HLD	28	0	3	96
TAP	28	48	1
TAP	28	96	2
HLD	28	144	4	96
TAP	28	192	6
TAP	28	240	5
TAP	28	288	0
TAP	28	288	7
TAP	28	336	3
TAP	28	336	4
STR	29	0	0
SI_	29	0	0	96	48	4
STR	29	0	5
SI_	29	0	5	96	48	7
TAP	29	96	0
TAP	29	96	5
TAP	29	192	2
TAP	29	192	3
TAP	29	288	3
TAP	29	288	6
TAP	29	336	2
TAP	29	336	5
HLD	30	0	1	96
TAP	30	0	4
TAP	30	48	3
TAP	30	96	2
HLD	30	144	0	96
TAP	30	144	3
TAP	30	192	2
TAP	30	240	1
TAP	30	288	6
TAP	30	288	7
TAP	30	336	4
TAP	30	336	5
TAP	31	0	3
HLD	31	0	6	96
TAP	31	48	4
TAP	31	96	5
TAP	31	144	4
HLD	31	144	7	96
TAP	31	192	5
TAP	31	240	6
TAP	31	288	0
TAP	31	288	1
TAP	31	336	2
TAP	31	336	3
TAP	32	0	1
TAP	32	24	0
TAP	32	48	1
TAP	32	72	0
TAP	32	96	2
TAP	32	120	7
TAP	32	144	2
TAP	32	168	7
TAP	32	192	3
TAP	32	216	6
TAP	32	240	3
TAP	32	264	6
TAP	32	288	4
TAP	32	312	5
TAP	32	336	4
TAP	32	360	5
TAP	33	0	7
TAP	33	24	6
TAP	33	48	7
TAP	33	72	6
TAP	33	96	0
TAP	33	120	5
TAP	33	144	0
TAP	33	168	5
STR	33	192	1
SI_	33	192	1	96	48	3
STR	33	192	4
SI_	33	192	4	96	48	0
BRK	33	288	1
BRK	33	288	4
HLD	34	0	6	96
TAP	34	48	0
TAP	34	72	1
TAP	34	96	2
HLD	34	144	5	96
TAP	34	192	7
TAP	34	216	0
TAP	34	240	1
TAP	34	288	4
TAP	34	336	2
TAP	34	336	3
HLD	35	0	1	96
TAP	35	48	7
TAP	35	72	6
TAP	35	96	5
HLD	35	144	2	96
TAP	35	192	0
TAP	35	216	7
TAP	35	240	6
TAP	35	288	3
TAP	35	336	4
TAP	35	336	5
HLD	36	0	6	96
TAP	36	48	7
TAP	36	72	0
TAP	36	96	1
HLD	36	144	5	96
TAP	36	192	6
TAP	36	216	7
TAP	36	240	0
TAP	36	288	4
TAP	36	336	2
TAP	36	336	3
HLD	37	0	1	96
TAP	37	48	0
TAP	37	72	7
TAP	37	96	6
HLD	37	144	2	96
TAP	37	192	1
TAP	37	216	0
TAP	37	240	7
TAP	37	288	3
TAP	37	288	4
TAP	37	336	1
TAP	37	336	6
HLD	38	0	5	96
TAP	38	0	7
TAP	38	48	4
TAP	38	72	3
TAP	38	96	2
TAP	38	144	0
HLD	38	144	6	96
TAP	38	192	5
TAP	38	216	4
TAP	38	240	3
TAP	38	288	1
TAP	38	288	7
TAP	38	336	3
TAP	38	336	4
TAP	39	0	0
HLD	39	0	2	96
TAP	39	48	3
TAP	39	72	4
TAP	39	96	5
HLD	39	144	1	96
TAP	39	144	7
TAP	39	192	2
TAP	39	216	3
TAP	39	240	4
TAP	39	288	0
TAP	39	288	6
TAP	39	336	3
TAP	39	336	4
TAP	40	0	6
TAP	40	24	7
TAP	40	48	6
TAP	40	72	7
TAP	40	96	5
TAP	40	120	0
TAP	40	144	5
TAP	40	168	0
TAP	40	192	4
TAP	40	216	1
TAP	40	240	4
TAP	40	264	1
TAP	40	288	3
TAP	40	312	2
TAP	40	336	3
TAP	40	360	2
TAP	41	0	0
TAP	41	24	1
TAP	41	48	0
TAP	41	72	1
TAP	41	96	7
TAP	41	120	2
TAP	41	144	7
TAP	41	168	2
STR	41	192	3
SI_	41	192	3	96	48	7
STR	41	192	6
SI_	41	192	6	96	48	4
BRK	41	288	3
BRK	41	288	6
STR	42	0	0
SI_	42	0	0	96	48	4
STR	42	0	1
SI_	42	0	1	96	48	3
TAP	42	96	0
TAP	42	96	1
STR	42	192	5
SUR	42	192	5	96	48	1
TAP	42	264	2
TAP	42	336	2
STR	43	0	0
SI_	43	0	0	96	48	4
STR	43	0	7
SI_	43	0	7	96	48	5
TAP	43	96	0
TAP	43	96	7
STR	43	192	3
SUL	43	192	3	96	48	6
TAP	43	264	5
TAP	43	336	5
STR	44	0	3
SF_	44	0	3	96	48	7
STR	44	192	4
SCL	44	192	4	96	48	0
TAP	44	192	5
TAP	44	264	7
TAP	44	336	7
TAP	45	0	2
STR	45	0	3
SCR	45	0	3	96	48	7
TAP	45	192	0
TAP	45	192	1
TAP	45	288	6
TAP	45	288	7
TAP	45	336	0
TAP	45	336	5
STR	46	0	1
SI_	46	0	1	96	48	4
TAP	46	0	4
TAP	46	96	1
TAP	46	96	5
STR	46	144	6
SI_	46	144	6	96	48	3
TAP	46	240	2
TAP	46	240	6
TAP	46	288	1
STR	47	0	0
SCR	47	0	0	96	192	7
STR	47	0	7
SCL	47	0	7	96	192	0
BST	48	0	3
SXR	48	0	3	96	192	0
BST	48	0	4
SXL	48	0	4	96	192	7
TAP	49	0	5
TAP	49	24	4
TAP	49	48	5
TAP	49	72	4
TAP	49	96	7
TAP	49	120	0
TAP	49	144	7
TAP	49	168	0
BRK	49	192	1
BRK	49	192	6
STR	49	288	3
SI_	49	288	3	96	48	7
STR	49	288	4
SI_	49	288	4	96	48	0
TAP	49	336	2
TAP	49	336	5
TAP	50	0	3
TAP	50	0	4
TAP	50	96	3
TAP	50	96	4
TAP	50	144	2
TAP	50	144	5
STR	50	192	1
SI_	50	192	1	96	48	5
TAP	50	192	6
STR	50	288	1
SCL	50	288	1	96	48	6
STR	51	0	1
SI_	51	0	1	96	48	4
TAP	51	96	1
STR	51	144	0
SI_	51	144	0	96	48	3
TAP	51	240	0
STR	51	288	7
SI_	51	288	7	96	48	4
STR	52	0	6
SI_	52	0	6	96	48	3
TAP	52	0	7
STR	52	96	6
SCR	52	96	6	96	48	1
STR	52	192	6
SI_	52	192	6	96	48	2
TAP	52	288	6
STR	53	0	1
SI_	53	0	1	96	48	4
STR	53	0	5
SI_	53	0	5	96	48	0
TAP	53	96	1
TAP	53	96	5
TAP	53	192	2
TAP	53	192	6
TAP	53	288	1
TAP	53	288	5
TAP	53	336	0
TAP	53	336	4
STR	54	0	3
SI_	54	0	3	96	48	6
STR	54	0	7
SI_	54	0	7	96	48	2
TAP	54	96	3
TAP	54	96	7
HLD	54	192	0	72
HLD	54	264	1	72
TAP	54	336	2
STR	55	0	3
SI_	55	0	3	96	48	6
TAP	55	0	5
TAP	55	96	0
TAP	55	96	3
TAP	55	192	2
STR	55	192	4
SI_	55	192	4	96	48	1
TAP	55	288	4
TAP	55	288	7
STR	56	0	3
SCL	56	0	3	96	192	4
STR	56	0	4
SCR	56	0	4	96	192	3
TAP	57	0	3
STR	57	0	6
SI_	57	0	6	96	48	3
TAP	57	96	2
TAP	57	96	6
STR	57	144	1
SI_	57	144	1	96	48	4
TAP	57	240	1
TAP	57	240	5
BRK	57	288	7
STR	58	0	1
SI_	58	0	1	96	48	5
STR	58	0	7
SI_	58	0	7	96	48	2
STR	58	96	1
SCL	58	96	1	96	48	6
TAP	58	96	7
TAP	58	192	4
TAP	58	264	3
TAP	58	336	1
TAP	58	336	2
STR	59	0	0
SI_	59	0	0	96	48	5
STR	59	0	6
SI_	59	0	6	96	48	2
TAP	59	96	0
STR	59	96	6
SCR	59	96	6	96	48	1
TAP	59	192	3
TAP	59	264	4
TAP	59	336	5
TAP	59	336	6
STR	60	0	0
SI_	60	0	0	96	48	2
STR	60	0	7
SI_	60	0	7	96	48	3
STR	60	96	0
SI_	60	96	0	96	48	4
TAP	60	96	7
TAP	60	192	0
STR	60	192	5
SI_	60	192	5	96	48	7
TAP	60	288	0
TAP	60	288	5
TAP	60	336	0
TAP	61	48	2
TAP	61	48	3
TAP	61	96	0
TAP	61	96	6
TAP	61	144	4
TAP	61	144	5
TAP	61	192	1
TAP	61	192	7
TAP	61	240	2
TAP	61	240	3
TAP	61	288	4
TAP	61	288	5
BRK	61	336	0
BRK	61	336	7
STR	62	0	2
SI_	62	0	2	96	48	7
STR	62	0	6
SI_	62	0	6	96	48	3
TAP	62	96	2
TAP	62	96	6
STR	62	192	4
SCL	62	192	4	96	48	0
TAP	62	192	5
TAP	62	264	7
TAP	62	336	7
TAP	63	0	5
TAP	63	48	4
TAP	63	48	6
TAP	63	96	3
TAP	63	96	7
TAP	63	144	0
TAP	63	144	2
TAP	63	192	1
TAP	63	240	0
TAP	63	240	7
STR	63	288	3
SUR	63	288	3	96	48	7
STR	63	288	4
SCR	63	288	4	96	48	6
STR	64	0	3
SCL	64	0	3	96	192	4
STR	64	0	4
SUL	64	0	4	96	192	3
TAP	65	0	1
TAP	65	24	0
TAP	65	48	1
TAP	65	72	0
TAP	65	96	3
TAP	65	120	4
TAP	65	144	3
TAP	65	168	4
TAP	65	192	7
TAP	65	216	6
TAP	65	240	7
TAP	65	264	6
TAP	65	288	3
TAP	65	312	4
TAP	65	336	1
TAP	65	360	6
STR	66	0	3
SI_	66	0	3	96	96	7
STR	66	192	4
SI_	66	192	4	96	96	0
STR	67	0	1
SI_	67	0	1	96	96	5
STR	67	192	6
SI_	67	192	6	96	96	2
BST	68	0	0
SCR	68	0	0	96	672	7

T_REC_TAP	385
T_REC_BRK	15
T_REC_XTP	0
T_REC_HLD	37
T_REC_XHO	0
T_REC_STR	92
T_REC_BST	3
T_REC_XST	0
T_REC_TTP	0
T_REC_THO	0
T_REC_SLD	95
T_REC_ALL	627
T_NUM_TAP	477
T_NUM_BRK	18
T_NUM_HLD	37
T_NUM_SLD	95
T_NUM_ALL	627
T_JUDGE_TAP	495
T_JUDGE_HLD	80
T_JUDGE_SLD	95
T_JUDGE_ALL	670
TTM_EACHPAIRS	146
TTM_SCR_TAP	238500
TTM_SCR_BRK	46800
TTM_SCR_HLD	37000
TTM_SCR_SLD	142500
TTM_SCR_ALL	464800
TTM_SCR_S	449150
TTM_SCR_SS	463000
TTM_RAT_ACV	10038

