VERSION	0.00.00	1.03.00
FES_MODE	0
BPM_DEF	123.000	123.000	123.000	123.000
MET_DEF	4	4
RESOLUTION	384
CLK_DEF	384
COMPATIBLE_CODE	MA2

BPM	0	0	123.000
MET	0	0	4	4

TAP	1	288	0
TAP	1	288	7
STR	2	0	0
SCR	2	0	0	96	192	3
STR	2	0	7
SCL	2	0	7	96	192	4
TAP	3	0	1
TAP	3	0	6
TAP	3	192	1
TAP	3	192	7
TAP	3	288	0
TAP	3	288	6
TAP	4	0	3
TAP	4	0	7
TAP	4	192	0
TAP	4	192	4
HLD	5	0	2	192
HLD	5	0	6	192
TAP	5	288	0
TAP	5	288	7
STR	6	0	0
SUL	6	0	0	96	192	3
STR	6	0	7
SCL	6	0	7	96	192	4
STR	7	0	3
SCL	7	0	3	96	192	0
STR	7	0	4
SUL	7	0	4	96	192	7
STR	8	0	0
SI_	8	0	0	96	192	4
STR	8	0	7
SI_	8	0	7	96	192	3
TAP	9	0	0
TAP	9	0	1
TAP	9	144	3
TAP	9	144	4
TAP	9	288	6
TAP	9	288	7
HLD	10	0	0	96
HLD	10	96	6	96
TAP	10	192	4
TAP	10	240	5
TAP	10	288	4
HLD	11	0	7	96
HLD	11	96	1	96
TAP	11	192	3
TAP	11	240	2
TAP	11	288	3
STR	12	0	0
SI_	12	0	0	96	48	3
TAP	12	96	7
STR	12	192	7
SI_	12	192	7	96	48	4
TAP	12	288	0
HLD	12	336	0	96
TAP	13	48	7
TAP	13	96	7
TAP	13	144	1
TAP	13	192	1
TAP	13	240	5
TAP	13	288	5
TAP	13	336	3
HLD	14	0	3	96
HLD	14	96	2	96
TAP	14	192	1
TAP	14	240	0
TAP	14	288	1
TAP	14	288	7
HLD	15	0	4	96
HLD	15	96	5	96
TAP	15	192	6
TAP	15	240	7
TAP	15	288	0
TAP	15	288	6
STR	16	0	0
SXL	16	0	0	96	288	3
STR	16	0	7
SXR	16	0	7	96	288	4
STR	18	0	2
SUL	18	0	2	96	192	4
BRK	18	0	5
TAP	19	0	2
STR	19	0	5
SUR	19	0	5	96	192	3
STR	20	0	1
SUL	20	0	1	96	288	3
STR	20	0	6
SUR	20	0	6	96	288	4
TAP	21	192	3
TAP	21	192	4
TAP	21	288	3
TAP	21	336	4
TAP	22	0	2
TAP	22	0	5
TAP	22	96	2
HLD	22	144	2	144
TAP	22	240	1
TAP	22	288	1
TAP	23	0	2
TAP	23	0	5
TAP	23	96	5
HLD	23	144	5	144
TAP	23	240	6
TAP	23	288	6
HLD	24	0	1	96
TAP	24	96	7
HLD	24	192	6	96
TAP	24	288	0
HLD	25	0	2	96
TAP	25	0	3
TAP	25	96	7
TAP	25	192	4
HLD	25	192	5	96
BRK	25	288	0
HLD	26	0	1	288
HLD	26	144	7	144
HLD	27	0	6	288
HLD	27	144	0	144
STR	28	0	0
SI_	28	0	0	96	48	4
STR	28	192	7
SI_	28	192	7	96	48	3
STR	29	0	1
SI_	29	0	1	96	48	4
STR	29	192	6
SI_	29	192	6	96	48	3
HLD	30	0	1	288
HLD	30	144	3	144
HLD	31	0	6	288
HLD	31	144	4	144
STR	32	0	3
SI_	32	0	3	96	48	7
STR	32	192	4
SI_	32	192	4	96	48	0
STR	33	0	2
SI_	33	0	2	96	48	7
STR	33	192	5
SI_	33	192	5	96	48	0
HLD	34	0	2	288
TAP	34	96	4
TAP	34	192	3
TAP	34	288	4
HLD	35	0	5	288
TAP	35	96	3
TAP	35	192	4
TAP	35	288	3
HLD	36	0	1	288
TAP	36	96	3
TAP	36	192	4
TAP	36	288	3
HLD	37	0	6	288
TAP	37	96	4
TAP	37	192	3
TAP	37	288	4
HLD	38	0	0	288
TAP	38	96	2
TAP	38	192	3
TAP	38	288	2
HLD	39	0	7	288
TAP	39	96	5
TAP	39	192	4
TAP	39	288	5
TAP	40	0	0
TAP	40	0	1
TAP	40	96	2
TAP	40	96	3
TAP	40	192	4
TAP	40	192	5
TAP	40	288	6
TAP	40	288	7
TAP	41	0	4
TAP	41	0	5
TAP	41	96	2
TAP	41	96	3
TAP	41	192	0
TAP	41	192	1
BRK	41	288	6
BRK	41	288	7
TAP	42	0	0
TAP	42	0	6
TAP	42	96	0
TAP	42	96	6
TAP	42	192	1
TAP	42	240	0
TAP	42	288	1
TAP	43	0	1
TAP	43	0	7
TAP	43	96	1
TAP	43	96	7
TAP	43	192	6
TAP	43	240	7
TAP	43	288	6
TAP	44	0	3
TAP	44	0	5
TAP	44	96	3
TAP	44	96	5
TAP	44	192	2
TAP	44	240	3
TAP	44	288	2
STR	45	0	2
SCR	45	0	2	96	96	5
TAP	45	288	0
TAP	45	288	7
TAP	46	0	6
TAP	46	0	7
TAP	46	96	0
TAP	46	96	5
TAP	46	192	1
TAP	46	192	4
TAP	46	288	2
TAP	46	288	3
TAP	47	0	0
TAP	47	0	1
TAP	47	96	2
TAP	47	96	7
TAP	47	192	3
TAP	47	192	6
TAP	47	288	4
TAP	47	288	5
STR	48	0	4
SXR	48	0	4	96	288	1
STR	48	0	5
SXL	48	0	5	96	288	0
TAP	49	192	3
TAP	49	192	4
BRK	49	288	1
BRK	49	288	6
HLD	50	0	1	288
TAP	50	96	2
TAP	50	192	0
TAP	50	288	2
HLD	51	0	6	288
TAP	51	96	5
TAP	51	192	7
TAP	51	288	5
HLD	52	0	2	288
TAP	52	96	3
TAP	52	192	1
TAP	52	288	3
HLD	53	0	5	288
TAP	53	96	4
TAP	53	192	6
TAP	53	288	4
TAP	54	0	6
TAP	54	0	7
TAP	54	96	0
TAP	54	96	5
TAP	54	192	4
TAP	54	192	5
TAP	54	288	3
TAP	54	288	6
TAP	55	0	2
TAP	55	0	3
TAP	55	96	1
TAP	55	96	4
TAP	55	192	0
TAP	55	192	1
TAP	55	288	2
TAP	55	288	7
STR	56	0	0
SXR	56	0	0	96	192	5
STR	56	0	1
SXL	56	0	1	96	192	4
TAP	57	0	6
TAP	57	0	7
TAP	57	144	3
TAP	57	144	4
BRK	57	288	0
BRK	57	288	1
HLD	58	0	7	96
HLD	58	96	1	96
TAP	58	192	3
TAP	58	240	2
TAP	58	288	3
HLD	59	0	0	96
HLD	59	96	6	96
TAP	59	192	4
TAP	59	240	5
TAP	59	288	4
STR	60	0	7
SI_	60	0	7	96	48	4
TAP	60	96	0
STR	60	192	0
SI_	60	192	0	96	48	3
TAP	60	288	7
HLD	60	336	7	96
TAP	61	48	0
TAP	61	96	0
TAP	61	144	6
TAP	61	192	6
TAP	61	240	2
TAP	61	288	2
TAP	61	336	4
HLD	62	0	4	96
HLD	62	96	5	96
TAP	62	192	6
TAP	62	240	7
TAP	62	288	0
TAP	62	288	6
HLD	63	0	3	96
HLD	63	96	2	96
TAP	63	192	1
TAP	63	240	0
TAP	63	288	1
TAP	63	288	7
STR	64	0	0
SXL	64	0	0	96	288	3
STR	64	0	7
SXR	64	0	7	96	288	4
TAP	66	0	3
TAP	66	0	7
TAP	66	192	1
TAP	66	192	5
TAP	67	0	2
TAP	67	0	6
TAP	67	192	0
TAP	67	192	4
STR	68	0	3
SCL	68	0	3	96	672	4
TAP	68	0	7

T_REC_TAP	200
T_REC_BRK	8
T_REC_XTP	0
T_REC_HLD	44
T_REC_XHO	0
T_REC_STR	34
T_REC_BST	0
T_REC_XST	0
T_REC_TTP	0
T_REC_THO	0
T_REC_SLD	34
T_REC_ALL	320
T_NUM_TAP	234
T_NUM_BRK	8
T_NUM_HLD	44
T_NUM_SLD	34
T_NUM_ALL	320
T_JUDGE_TAP	242
T_JUDGE_HLD	154
T_JUDGE_SLD	34
T_JUDGE_ALL	430
TTM_EACHPAIRS	72
TTM_SCR_TAP	117000
TTM_SCR_BRK	20800
TTM_SCR_HLD	44000
TTM_SCR_SLD	51000
TTM_SCR_ALL	232800
TTM_SCR_S	225050
TTM_SCR_SS	232000
TTM_RAT_ACV	10034

