VERSION	0.00.00	1.03.00
FES_MODE	0
BPM_DEF	123.000	123.000	123.000	123.000
MET_DEF	4	4
RESOLUTION	384
CLK_DEF	384
COMPATIBLE_CODE	MA2

BPM	0	0	123.000
MET	0	0	4	4

HLD	2	0	2	384
TAP	3	0	3
HLD	4	0	5	384
TAP	5	0	4
HLD	6	0	2	384
TAP	6	192	3
TAP	7	0	3
HLD	8	0	5	384
TAP	8	192	4
TAP	9	0	4
TAP	9	192	3
TAP	9	192	4
TAP	9	288	2
TAP	9	288	5
BRK	10	0	1
TAP	10	96	0
TAP	10	192	7
TAP	10	288	6
TAP	11	0	4
TAP	11	0	5
TAP	11	96	4
TAP	11	96	5
TAP	11	192	3
TAP	11	192	6
TAP	12	0	6
TAP	12	96	7
TAP	12	192	0
TAP	12	288	1
STR	13	0	2
SI_	13	0	2	96	144	7
STR	13	0	3
SI_	13	0	3	96	144	6
TAP	14	0	0
TAP	14	96	7
TAP	14	192	6
TAP	14	288	5
TAP	15	0	4
TAP	15	96	3
TAP	15	96	5
TAP	15	192	2
TAP	15	192	6
TAP	15	288	1
TAP	15	288	7
STR	16	0	0
SCR	16	0	0	96	288	4
TAP	17	192	4
TAP	17	288	5
HLD	18	0	6	192
TAP	18	192	7
HLD	19	0	1	192
TAP	19	192	0
STR	20	0	6
SCL	20	0	6	96	192	3
TAP	21	0	2
TAP	21	96	2
TAP	21	192	0
TAP	21	192	1
HLD	22	0	1	192
TAP	22	96	0
TAP	22	192	0
HLD	23	0	6	192
TAP	23	96	7
TAP	23	192	7
STR	24	0	1
SCR	24	0	1	96	192	4
TAP	25	0	5
TAP	25	96	4
TAP	25	192	3
TAP	25	192	6
HLD	26	0	5	192
TAP	26	96	4
TAP	26	192	4
HLD	27	0	2	192
TAP	27	96	3
TAP	27	192	3
STR	28	0	5
SCR	28	0	5	96	192	0
TAP	29	0	1
TAP	29	96	1
TAP	29	192	2
TAP	29	192	3
HLD	30	0	2	192
TAP	30	96	3
TAP	30	192	3
HLD	31	0	5	192
TAP	31	96	4
TAP	31	192	4
STR	32	0	2
SCL	32	0	2	96	192	7
TAP	33	0	5
TAP	33	96	4
TAP	33	192	3
TAP	33	192	6
HLD	34	0	2	192
TAP	34	96	3
TAP	34	192	4
HLD	35	0	5	192
TAP	35	96	4
TAP	35	192	3
STR	36	0	2
SCL	36	0	2	96	192	7
STR	36	0	3
SCR	36	0	3	96	192	6
TAP	37	0	6
TAP	37	96	6
TAP	37	192	4
TAP	37	192	5
HLD	38	0	5	192
TAP	38	96	4
TAP	38	192	3
HLD	39	0	2	192
TAP	39	96	3
TAP	39	192	4
STR	40	0	4
SXR	40	0	4	96	384	1
STR	40	0	5
SXL	40	0	5	96	384	0
BRK	42	0	2
BRK	42	0	3
TAP	42	96	2
TAP	42	96	3
TAP	42	192	1
TAP	42	192	4
TAP	43	0	4
TAP	43	0	5
TAP	43	96	4
TAP	43	96	5
TAP	43	192	3
TAP	43	192	6
TAP	44	0	3
TAP	44	0	4
TAP	44	96	2
TAP	44	96	5
TAP	44	192	1
TAP	44	192	6
TAP	44	288	0
TAP	44	288	7
HLD	45	0	0	192
HLD	45	0	7	192
TAP	46	0	6
TAP	46	0	7
TAP	46	96	6
TAP	46	96	7
TAP	46	192	0
TAP	46	192	5
TAP	47	0	0
TAP	47	0	1
TAP	47	96	0
TAP	47	96	1
TAP	47	192	2
TAP	47	192	7
TAP	48	0	0
TAP	48	0	7
TAP	48	96	1
TAP	48	96	6
TAP	48	192	2
TAP	48	192	5
TAP	48	288	3
TAP	48	288	4
STR	49	0	3
SI_	49	0	3	96	192	0
STR	49	0	4
SI_	49	0	4	96	192	7
BRK	50	0	6
TAP	50	96	7
TAP	50	192	0
TAP	50	288	1
TAP	51	0	2
TAP	51	0	3
TAP	51	96	2
TAP	51	96	3
TAP	51	192	1
TAP	51	192	4
TAP	52	0	1
TAP	52	96	0
TAP	52	192	7
TAP	52	288	6
STR	53	0	4
SI_	53	0	4	96	144	1
STR	53	0	5
SI_	53	0	5	96	144	0
TAP	54	0	7
TAP	54	96	0
TAP	54	192	1
TAP	54	288	2
TAP	55	0	3
TAP	55	96	2
TAP	55	96	4
TAP	55	192	1
TAP	55	192	5
TAP	55	288	0
TAP	55	288	6
STR	56	0	7
SCL	56	0	7	96	192	4
STR	57	0	3
SCL	57	0	3	96	192	0
BRK	58	0	6
TAP	58	96	7
TAP	58	192	0
TAP	58	288	1
TAP	59	0	2
TAP	59	0	3
TAP	59	96	2
TAP	59	96	3
TAP	59	192	0
TAP	59	192	5
TAP	60	0	1
TAP	60	96	0
TAP	60	192	7
TAP	60	288	6
STR	61	0	4
SCL	61	0	4	96	144	1
STR	61	0	5
SCR	61	0	5	96	144	0
TAP	62	0	7
TAP	62	96	0
TAP	62	192	1
TAP	62	288	2
TAP	63	0	3
TAP	63	96	2
TAP	63	96	4
TAP	63	192	1
TAP	63	192	5
TAP	63	288	0
TAP	63	288	6
STR	64	0	7
SCL	64	0	7	96	240	3
TAP	65	0	2
TAP	65	96	5
TAP	65	192	3
TAP	65	288	4
BRK	66	0	1
BRK	66	0	6

T_REC_TAP	168
T_REC_BRK	7
T_REC_XTP	0
T_REC_HLD	18
T_REC_XHO	0
T_REC_STR	20
T_REC_BST	0
T_REC_XST	0
T_REC_TTP	0
T_REC_THO	0
T_REC_SLD	20
T_REC_ALL	233
T_NUM_TAP	188
T_NUM_BRK	7
T_NUM_HLD	18
T_NUM_SLD	20
T_NUM_ALL	233
T_JUDGE_TAP	195
T_JUDGE_HLD	88
T_JUDGE_SLD	20
T_JUDGE_ALL	303
TTM_EACHPAIRS	53
TTM_SCR_TAP	94000
TTM_SCR_BRK	18200
TTM_SCR_HLD	18000
TTM_SCR_SLD	30000
TTM_SCR_ALL	160200
TTM_SCR_S	154750
TTM_SCR_SS	159500
TTM_RAT_ACV	10043

