VERSION	0.00.00	1.03.00
FES_MODE	0
BPM_DEF	123.000	123.000	123.000	123.000
MET_DEF	4	4
RESOLUTION	384
CLK_DEF	384
COMPATIBLE_CODE	MA2

BPM	0	0	123.000
MET	0	0	4	4

TAP	2	0	0
TAP	3	0	0
TAP	4	0	1
TAP	5	0	1
TAP	6	0	2
TAP	6	192	2
TAP	7	0	2
TAP	7	192	2
HLD	8	0	3	192
TAP	9	0	3
TAP	9	96	3
TAP	9	192	3
TAP	9	288	3
TAP	10	0	4
TAP	10	96	4
TAP	10	192	4
TAP	11	0	5
TAP	11	96	5
TAP	11	192	5
TAP	12	0	6
TAP	12	96	6
TAP	12	192	6
HLD	13	0	7	192
TAP	14	0	0
TAP	14	96	0
TAP	14	192	0
TAP	15	0	1
TAP	15	96	1
TAP	15	192	1
HLD	16	0	2	384
HLD	16	0	3	384
BRK	18	0	3
BRK	18	0	4
TAP	19	0	2
TAP	20	0	3
TAP	20	0	4
TAP	21	0	5
TAP	22	0	3
TAP	22	192	3
TAP	23	0	2
TAP	23	192	2
STR	24	0	1
SI_	24	0	1	96	288	4
TAP	26	0	5
TAP	26	192	5
TAP	27	0	6
TAP	27	192	6
STR	28	0	7
SI_	28	0	7	96	288	2
TAP	30	0	2
TAP	30	192	2
TAP	31	0	1
TAP	31	192	1
STR	32	0	0
SI_	32	0	0	96	288	5
HLD	34	0	5	192
HLD	35	0	6	192
STR	36	0	7
SI_	36	0	7	96	288	3
HLD	38	0	2	192
HLD	39	0	1	192
STR	40	0	0
SI_	40	0	0	96	288	4
TAP	42	0	5
TAP	42	96	5
TAP	42	192	5
TAP	43	0	6
TAP	43	96	6
TAP	43	192	6
TAP	44	0	7
TAP	44	96	7
TAP	44	192	7
TAP	45	0	0
TAP	45	0	7
TAP	46	0	0
TAP	46	96	0
TAP	46	192	0
TAP	47	0	1
TAP	47	96	1
TAP	47	192	1
HLD	48	0	2	384
TAP	50	0	3
TAP	50	96	3
TAP	50	192	3
TAP	51	0	2
TAP	51	96	2
TAP	51	192	2
TAP	52	0	1
TAP	52	96	1
TAP	52	192	1
BRK	53	0	0
BRK	53	0	7
TAP	54	0	7
TAP	54	96	7
TAP	54	192	7
TAP	55	0	6
TAP	55	96	6
TAP	55	192	6
STR	56	0	5
SI_	56	0	5	96	288	2
TAP	58	0	0
TAP	58	96	0
TAP	58	192	0
TAP	59	0	1
TAP	59	96	1
TAP	59	192	1
TAP	60	0	2
TAP	60	96	2
TAP	60	192	2
TAP	61	0	3
TAP	61	96	3
TAP	61	192	4
TAP	61	288	4
TAP	62	0	3
TAP	62	96	3
TAP	62	192	3
TAP	63	0	4
TAP	63	96	4
TAP	63	192	4
STR	64	0	3
SI_	64	0	3	96	288	0
TAP	66	0	7
TAP	66	192	7
TAP	67	0	6
TAP	67	192	6
HLD	68	0	5	768

T_REC_TAP	98
T_REC_BRK	4
T_REC_XTP	0
T_REC_HLD	10
T_REC_XHO	0
T_REC_STR	7
T_REC_BST	0
T_REC_XST	0
T_REC_TTP	0
T_REC_THO	0
T_REC_SLD	7
T_REC_ALL	126
T_NUM_TAP	105
T_NUM_BRK	4
T_NUM_HLD	10
T_NUM_SLD	7
T_NUM_ALL	126
T_JUDGE_TAP	109
T_JUDGE_HLD	64
T_JUDGE_SLD	7
T_JUDGE_ALL	180
TTM_EACHPAIRS	5
TTM_SCR_TAP	52500
TTM_SCR_BRK	10400
TTM_SCR_HLD	10000
TTM_SCR_SLD	10500
TTM_SCR_ALL	83400
TTM_SCR_S	80550
TTM_SCR_SS	83000
TTM_RAT_ACV	10048

