VERSION	0.00.00	1.03.00
FES_MODE	0
BPM_DEF	155.000	155.000	155.000	 85.000
MET_DEF	4	4
RESOLUTION	384
CLK_DEF	384
COMPATIBLE_CODE	MA2

BPM	0	0	155.000
BPM	54	0	120.000
BPM	58	192	 85.000

HLD	1	0	0	192
HLD	1	192	7	192
HLD	2	0	6	192
HLD	2	192	5	192
STR	3	0	4
SCL	3	0	4	96	192	1
HLD	4	0	1	192
TAP	4	144	0
TAP	4	192	0
HLD	5	0	7	192
HLD	5	192	0	192
HLD	6	0	1	192
HLD	6	192	2	192
TAP	7	0	3
TAP	7	96	0
TAP	7	96	1
TAP	7	192	4
TAP	7	288	6
TAP	7	288	7
STR	8	0	1
SI_	8	0	1	96	48	4
STR	8	96	7
SI_	8	96	7	96	48	3
STR	8	192	0
SI_	8	192	0	96	48	4
STR	8	288	6
SI_	8	288	6	96	48	3
STR	9	0	2
SCL	9	0	2	96	96	5
TAP	9	288	1
TAP	9	288	6
TAP	10	0	2
TAP	10	96	0
TAP	10	96	6
TAP	10	192	5
TAP	10	240	4
TAP	10	288	3
TAP	10	288	6
TAP	11	0	2
TAP	11	96	6
TAP	11	96	7
TAP	11	192	4
TAP	11	288	0
TAP	11	288	1
TAP	12	0	2
TAP	12	48	3
TAP	12	96	1
TAP	12	96	4
TAP	12	192	5
TAP	12	240	4
TAP	12	288	3
TAP	12	288	6
STR	13	0	5
SCR	13	0	5	96	96	2
TAP	13	288	1
TAP	13	288	6
TAP	14	0	5
TAP	14	96	1
TAP	14	96	7
TAP	14	192	2
TAP	14	240	3
TAP	14	288	1
TAP	14	288	4
TAP	15	0	5
TAP	15	96	0
TAP	15	96	1
TAP	15	192	3
TAP	15	288	6
TAP	15	288	7
TAP	16	0	5
TAP	16	48	4
TAP	16	96	3
TAP	16	96	6
TAP	16	192	2
TAP	16	240	3
TAP	16	288	1
TAP	16	288	4
TAP	17	0	0
TAP	17	48	7
STR	17	96	0
SCR	17	96	0	96	96	4
HLD	18	0	6	144
HLD	18	144	5	144
TAP	18	288	4
HLD	19	0	1	144
HLD	19	144	2	144
TAP	19	288	3
HLD	20	0	5	144
HLD	20	144	4	144
TAP	20	288	3
STR	21	0	2
SI_	21	0	2	96	192	6
HLD	22	0	1	144
HLD	22	144	2	144
TAP	22	288	3
HLD	23	0	6	144
HLD	23	144	5	144
TAP	23	288	4
HLD	24	0	2	144
HLD	24	144	3	144
TAP	24	288	4
STR	25	0	5
SI_	25	0	5	96	192	1
TAP	26	0	3
TAP	26	0	5
TAP	26	96	0
TAP	26	192	5
TAP	26	240	4
TAP	26	288	5
TAP	27	0	2
TAP	27	0	4
TAP	27	96	7
TAP	27	192	2
TAP	27	240	3
TAP	27	288	2
TAP	28	0	0
TAP	28	0	6
TAP	28	96	3
TAP	28	192	6
TAP	28	240	7
TAP	28	288	6
TAP	29	0	1
TAP	29	0	7
TAP	29	96	4
TAP	29	192	1
TAP	29	240	0
TAP	29	288	1
TAP	30	0	3
TAP	30	0	5
TAP	30	96	3
TAP	30	96	6
TAP	30	192	2
TAP	30	192	4
TAP	30	288	1
TAP	30	288	4
TAP	31	0	3
TAP	31	0	6
TAP	31	96	3
TAP	31	96	7
TAP	31	192	1
TAP	31	192	4
TAP	31	288	0
TAP	31	288	4
TAP	32	0	6
TAP	32	48	7
TAP	32	96	0
TAP	32	96	5
TAP	32	192	1
TAP	32	240	0
TAP	32	288	2
TAP	32	288	7
TAP	33	0	3
TAP	33	48	4
TAP	33	96	3
STR	33	144	4
SI_	33	144	4	96	48	7
STR	34	0	0
SCR	34	0	0	96	192	7
TAP	34	0	7
BRK	35	0	1
BRK	35	0	6
STR	36	0	6
SI_	36	0	6	96	48	3
TAP	36	0	7
TAP	36	192	0
STR	36	192	1
SI_	36	192	1	96	48	4
STR	37	0	6
SI_	37	0	6	96	48	2
TAP	37	0	7
TAP	37	192	0
STR	37	192	1
SI_	37	192	1	96	48	5
TAP	38	0	6
HLD	38	0	7	144
HLD	38	144	0	144
STR	38	288	1
SCL	38	288	1	96	96	5
TAP	39	192	2
TAP	39	192	7
TAP	39	288	3
TAP	39	288	4
STR	40	0	0
SI_	40	0	0	96	48	3
TAP	40	0	1
TAP	40	192	6
STR	40	192	7
SI_	40	192	7	96	48	4
STR	41	0	0
SI_	41	0	0	96	48	4
TAP	41	0	1
TAP	41	192	6
STR	41	192	7
SI_	41	192	7	96	48	3
HLD	42	0	0	144
TAP	42	0	1
HLD	42	144	7	144
STR	42	288	6
SCR	42	288	6	96	96	2
TAP	43	192	0
TAP	43	192	5
TAP	43	288	3
TAP	43	288	4
STR	44	0	4
SI_	44	0	4	96	48	7
TAP	44	0	5
TAP	44	192	2
STR	44	192	3
SI_	44	192	3	96	48	0
STR	45	0	4
SI_	45	0	4	96	48	0
TAP	45	0	5
TAP	45	192	2
STR	45	192	3
SI_	45	192	3	96	48	7
TAP	46	0	0
HLD	46	0	6	144
HLD	46	144	5	144
STR	46	288	4
SCR	46	288	4	96	96	1
TAP	47	192	2
TAP	47	192	6
TAP	47	288	3
TAP	47	288	4
STR	48	0	6
SI_	48	0	6	96	48	4
STR	48	0	7
SI_	48	0	7	96	48	3
STR	48	192	0
SI_	48	192	0	96	48	4
STR	48	192	1
SI_	48	192	1	96	48	3
STR	49	0	6
SI_	49	0	6	96	48	3
STR	49	0	7
SI_	49	0	7	96	48	2
TAP	49	192	0
TAP	49	192	1
TAP	49	288	2
TAP	49	288	7
TAP	50	0	6
TAP	50	48	6
TAP	50	96	5
TAP	50	96	7
TAP	50	192	1
TAP	50	240	1
TAP	50	288	0
TAP	50	288	2
STR	51	0	6
SI_	51	0	6	96	48	3
STR	51	96	0
SI_	51	96	0	96	48	4
STR	51	192	7
SI_	51	192	7	96	48	3
STR	51	288	1
SI_	51	288	1	96	48	4
BRK	52	0	6
HLD	54	0	2	192
HLD	54	192	3	192
HLD	55	0	4	192
HLD	55	192	5	192
STR	56	0	6
SI_	56	0	6	96	192	2
STR	57	0	1
SI_	57	0	1	96	192	5
TAP	58	0	7
TAP	58	96	0
HLD	58	192	7	96
STR	59	0	6
SXL	59	0	6	96	576	2

T_REC_TAP	155
T_REC_BRK	3
T_REC_XTP	0
T_REC_HLD	32
T_REC_XHO	0
T_REC_STR	40
T_REC_BST	0
T_REC_XST	0
T_REC_TTP	0
T_REC_THO	0
T_REC_SLD	40
T_REC_ALL	270
T_NUM_TAP	195
T_NUM_BRK	3
T_NUM_HLD	32
T_NUM_SLD	40
T_NUM_ALL	270
T_JUDGE_TAP	198
T_JUDGE_HLD	110
T_JUDGE_SLD	40
T_JUDGE_ALL	348
TTM_EACHPAIRS	60
TTM_SCR_TAP	97500
TTM_SCR_BRK	7800
TTM_SCR_HLD	32000
TTM_SCR_SLD	60000
TTM_SCR_ALL	197300
TTM_SCR_S	191100
TTM_SCR_SS	197000
TTM_RAT_ACV	10015

