VERSION	0.00.00	1.03.00
FES_MODE	0
BPM_DEF	155.000	155.000	155.000	 85.000
MET_DEF	4	4
RESOLUTION	384
CLK_DEF	384
COMPATIBLE_CODE	MA2

BPM	0	0	155.000
BPM	54	0	120.000
BPM	58	192	 85.000

HLD	1	0	3	192
HLD	1	192	4	192
HLD	2	0	5	192
HLD	2	192	6	192
STR	3	0	7
SCR	3	0	7	96	192	3
STR	4	0	5
SI_	4	0	5	96	144	1
HLD	5	0	4	192
HLD	5	192	3	192
HLD	6	0	2	192
HLD	6	192	1	192
STR	7	0	0
SCR	7	0	0	96	480	7
STR	9	0	0
SI_	9	0	0	96	144	3
STR	9	0	7
SI_	9	0	7	96	144	4
TAP	10	0	2
TAP	10	0	3
TAP	10	96	2
TAP	10	96	3
TAP	10	192	1
TAP	10	192	4
TAP	11	0	4
TAP	11	0	5
TAP	11	96	4
TAP	11	96	5
TAP	11	192	3
TAP	11	192	6
TAP	12	0	0
TAP	12	96	1
TAP	12	192	2
TAP	12	288	3
STR	13	0	4
SI_	13	0	4	96	144	1
STR	13	0	5
SI_	13	0	5	96	144	0
TAP	14	0	0
TAP	14	0	1
TAP	14	96	0
TAP	14	96	1
TAP	14	192	2
TAP	14	192	7
TAP	15	0	6
TAP	15	0	7
TAP	15	96	6
TAP	15	96	7
TAP	15	192	0
TAP	15	192	5
TAP	16	0	7
TAP	16	96	6
TAP	16	192	5
TAP	16	288	4
TAP	17	0	2
TAP	17	0	3
TAP	17	96	2
TAP	17	96	3
BRK	17	192	0
BRK	17	192	1
HLD	18	0	2	192
TAP	18	192	3
HLD	19	0	5	192
TAP	19	192	4
HLD	20	0	1	192
TAP	20	192	2
HLD	21	0	6	192
TAP	21	192	5
HLD	22	0	3	192
TAP	22	192	2
HLD	23	0	4	192
TAP	23	192	5
HLD	24	0	3	192
HLD	24	192	2	192
STR	25	0	1
SI_	25	0	1	96	144	5
TAP	26	0	4
TAP	26	96	5
TAP	26	192	3
TAP	26	192	6
TAP	27	0	3
TAP	27	96	2
TAP	27	192	1
TAP	27	192	4
TAP	28	0	4
TAP	28	96	5
TAP	28	192	3
TAP	28	192	6
TAP	28	288	3
TAP	28	288	6
TAP	29	0	3
TAP	29	96	2
TAP	29	192	1
TAP	29	192	4
TAP	30	0	0
TAP	30	96	1
TAP	30	192	2
TAP	30	192	7
TAP	31	0	7
TAP	31	96	6
TAP	31	192	0
TAP	31	192	5
TAP	32	0	2
TAP	32	96	1
TAP	32	96	3
TAP	32	192	5
TAP	32	288	4
TAP	32	288	6
STR	33	0	0
SI_	33	0	0	96	144	3
STR	33	0	7
SI_	33	0	7	96	144	4
STR	34	0	1
SLR	34	0	1	96	288	0
STR	34	0	6
SLL	34	0	6	96	288	7
BRK	35	192	1
BRK	35	192	6
TAP	36	0	0
TAP	36	96	1
TAP	36	96	7
TAP	36	192	2
TAP	36	288	1
TAP	36	288	3
TAP	37	0	4
TAP	37	96	3
TAP	37	96	5
TAP	37	192	6
TAP	37	288	5
TAP	37	288	7
STR	38	0	0
SI_	38	0	0	96	144	5
STR	38	0	1
SI_	38	0	1	96	144	4
STR	39	0	6
SI_	39	0	6	96	144	3
STR	39	0	7
SI_	39	0	7	96	144	2
TAP	40	0	7
TAP	40	96	0
TAP	40	96	6
TAP	40	192	5
TAP	40	288	4
TAP	40	288	6
TAP	41	0	3
TAP	41	96	2
TAP	41	96	4
TAP	41	192	1
TAP	41	288	0
TAP	41	288	2
STR	42	0	6
SCL	42	0	6	96	144	3
STR	42	0	7
SCR	42	0	7	96	144	2
HLD	43	0	1	96
HLD	43	0	4	96
BRK	43	192	0
BRK	43	192	7
TAP	44	0	1
TAP	44	96	0
TAP	44	96	2
TAP	44	192	3
TAP	44	288	2
TAP	44	288	4
TAP	45	0	5
TAP	45	96	4
TAP	45	96	6
TAP	45	192	7
TAP	45	288	0
TAP	45	288	6
STR	46	0	2
SI_	46	0	2	96	144	7
STR	46	0	3
SI_	46	0	3	96	144	6
STR	47	0	4
SI_	47	0	4	96	144	1
STR	47	0	5
SI_	47	0	5	96	144	0
TAP	48	0	0
TAP	48	0	1
TAP	48	96	0
TAP	48	96	1
TAP	48	192	2
TAP	48	192	3
TAP	48	288	2
TAP	48	288	3
TAP	49	0	4
TAP	49	0	5
TAP	49	96	4
TAP	49	96	5
TAP	49	192	6
TAP	49	192	7
TAP	49	288	6
TAP	49	288	7
TAP	50	0	0
STR	50	0	7
SCL	50	0	7	96	480	0
BST	52	0	0
SXL	52	0	0	96	480	3
BST	52	0	7
SXR	52	0	7	96	480	4
HLD	54	0	2	192
HLD	54	192	3	192
HLD	55	0	4	192
HLD	55	192	5	192
STR	56	0	6
SI_	56	0	6	96	192	1
STR	57	0	2
SI_	57	0	2	96	192	5
HLD	58	0	0	384
HLD	58	0	7	384

T_REC_TAP	127
T_REC_BRK	6
T_REC_XTP	0
T_REC_HLD	24
T_REC_XHO	0
T_REC_STR	25
T_REC_BST	2
T_REC_XST	0
T_REC_TTP	0
T_REC_THO	0
T_REC_SLD	27
T_REC_ALL	211
T_NUM_TAP	152
T_NUM_BRK	8
T_NUM_HLD	24
T_NUM_SLD	27
T_NUM_ALL	211
T_JUDGE_TAP	160
T_JUDGE_HLD	108
T_JUDGE_SLD	27
T_JUDGE_ALL	295
TTM_EACHPAIRS	59
TTM_SCR_TAP	76000
TTM_SCR_BRK	20800
TTM_SCR_HLD	24000
TTM_SCR_SLD	40500
TTM_SCR_ALL	161300
TTM_SCR_S	155700
TTM_SCR_SS	160500
TTM_RAT_ACV	10049

