VERSION	0.00.00	1.03.00
FES_MODE	0
BPM_DEF	155.000	155.000	155.000	 85.000
MET_DEF	4	4
RESOLUTION	384
CLK_DEF	384
COMPATIBLE_CODE	MA2

BPM	0	0	155.000
BPM	54	0	120.000
BPM	58	192	 85.000

TAP	1	0	7
TAP	1	192	7
TAP	2	0	6
TAP	2	192	6
TAP	3	0	5
TAP	3	192	5
TAP	4	0	4
TAP	4	192	3
TAP	4	192	4
TAP	5	0	3
TAP	5	192	3
TAP	6	0	2
TAP	6	192	2
TAP	7	0	1
TAP	7	192	1
TAP	8	0	0
TAP	8	192	0
TAP	8	192	7
BRK	9	0	0
BRK	9	0	7
TAP	10	0	6
TAP	10	192	6
TAP	11	0	7
TAP	11	96	7
TAP	11	192	7
TAP	12	0	0
TAP	12	192	0
TAP	13	0	1
TAP	13	96	1
TAP	13	192	0
TAP	13	192	1
TAP	14	0	2
TAP	14	192	2
TAP	15	0	3
TAP	15	96	3
TAP	15	192	3
TAP	16	0	4
TAP	16	192	4
TAP	17	0	5
TAP	17	96	5
TAP	17	192	4
TAP	17	192	5
STR	18	0	6
SI_	18	0	6	96	288	2
STR	20	0	1
SI_	20	0	1	96	288	5
STR	22	0	7
SI_	22	0	7	96	288	3
STR	24	0	0
SI_	24	0	0	96	288	4
TAP	26	0	7
TAP	26	192	7
TAP	27	0	6
TAP	27	96	6
TAP	27	192	6
TAP	28	0	5
TAP	28	192	5
TAP	29	0	3
TAP	29	0	4
TAP	29	96	3
TAP	29	96	4
TAP	29	192	3
TAP	29	192	4
TAP	30	0	3
TAP	30	192	3
TAP	31	0	2
TAP	31	96	2
TAP	31	192	2
TAP	32	0	1
TAP	32	192	1
TAP	33	0	0
TAP	33	0	7
TAP	33	96	0
TAP	33	96	7
TAP	33	192	0
TAP	33	192	7
HLD	34	0	0	384
HLD	34	0	7	384
TAP	36	0	1
TAP	36	96	1
TAP	36	192	1
TAP	37	0	2
TAP	37	96	2
TAP	37	192	2
TAP	38	0	3
TAP	38	96	3
TAP	38	192	3
TAP	39	0	4
TAP	39	96	4
TAP	39	192	3
TAP	39	192	4
TAP	40	0	5
TAP	40	96	5
TAP	40	192	5
TAP	41	0	6
TAP	41	96	6
TAP	41	192	6
TAP	42	0	7
TAP	42	96	7
TAP	42	192	7
TAP	43	0	0
TAP	43	96	0
TAP	43	192	0
TAP	43	192	7
TAP	44	0	6
TAP	44	96	6
TAP	44	192	6
TAP	45	0	5
TAP	45	96	5
TAP	45	192	5
TAP	46	0	4
TAP	46	96	4
TAP	46	192	3
TAP	46	192	4
TAP	47	0	3
TAP	47	96	3
TAP	47	192	3
TAP	47	192	4
TAP	48	0	2
TAP	48	96	2
TAP	48	192	2
TAP	49	0	1
TAP	49	96	1
TAP	49	192	1
TAP	50	0	0
TAP	50	96	0
TAP	50	192	0
TAP	50	192	7
TAP	51	0	7
TAP	51	96	7
TAP	51	192	0
TAP	51	192	7
BRK	52	0	0
BRK	52	0	7
STR	54	0	1
SI_	54	0	1	96	288	5
STR	56	0	6
SI_	56	0	6	96	288	2
HLD	58	0	0	384
HLD	58	0	7	384

T_REC_TAP	120
T_REC_BRK	4
T_REC_XTP	0
T_REC_HLD	4
T_REC_XHO	0
T_REC_STR	6
T_REC_BST	0
T_REC_XST	0
T_REC_TTP	0
T_REC_THO	0
T_REC_SLD	6
T_REC_ALL	140
T_NUM_TAP	126
T_NUM_BRK	4
T_NUM_HLD	4
T_NUM_SLD	6
T_NUM_ALL	140
T_JUDGE_TAP	130
T_JUDGE_HLD	40
T_JUDGE_SLD	6
T_JUDGE_ALL	176
TTM_EACHPAIRS	20
TTM_SCR_TAP	63000
TTM_SCR_BRK	10400
TTM_SCR_HLD	4000
TTM_SCR_SLD	9000
TTM_SCR_ALL	86400
TTM_SCR_S	83450
TTM_SCR_SS	86000
TTM_RAT_ACV	10046

