VERSION	0.00.00	1.03.00
FES_MODE	0
BPM_DEF	178.000	178.000	178.000	178.000
MET_DEF	4	4
RESOLUTION	384
CLK_DEF	384
COMPATIBLE_CODE	MA2

BPM	0	0	178.000
MET	0	0	4	4

HLD	1	0	2	288
HLD	1	0	3	288
TAP	1	336	4
TAP	1	336	5
HLD	2	0	3	288
HLD	2	0	6	288
STR	3	0	6
SXR	3	0	6	96	192	3
STR	3	0	7
SXL	3	0	7	96	192	2
HLD	4	0	1	240
HLD	4	0	6	240
TAP	4	288	3
TAP	4	312	4
TAP	4	336	3
TAP	4	360	4
TAP	5	0	2
TAP	5	48	3
TAP	5	96	1
TAP	5	96	4
TAP	5	144	2
TAP	5	192	3
TAP	5	240	2
TAP	5	288	1
TAP	5	288	4
TAP	5	336	2
TAP	6	0	5
TAP	6	48	4
TAP	6	96	3
TAP	6	96	6
TAP	6	144	5
TAP	6	192	4
TAP	6	240	5
TAP	6	288	3
TAP	6	288	6
TAP	6	336	5
TAP	7	0	0
TAP	7	48	7
TAP	7	96	1
TAP	7	96	6
TAP	7	144	0
TAP	7	192	7
TAP	7	240	0
TAP	7	288	1
TAP	7	288	6
TAP	7	336	0
TAP	7	336	7
HLD	8	0	2	96
HLD	8	0	5	96
TAP	8	192	3
TAP	8	216	4
TAP	8	240	3
TAP	8	288	5
TAP	8	336	2
STR	9	0	6
SCL	9	0	6	96	96	3
STR	9	96	3
SCL	9	96	3	96	96	0
STR	9	192	0
SCL	9	192	0	96	96	5
STR	9	288	5
SXL	9	288	5	96	192	3
HLD	10	0	1	192
TAP	10	240	0
TAP	10	288	7
TAP	10	336	6
STR	11	0	1
SCR	11	0	1	96	96	4
STR	11	96	4
SCR	11	96	4	96	96	7
STR	11	192	7
SCR	11	192	7	96	96	2
STR	11	288	2
SXR	11	288	2	96	192	4
HLD	12	0	6	192
TAP	12	288	0
TAP	12	288	7
STR	13	0	1
SI_	13	0	1	96	48	4
STR	13	96	6
SI_	13	96	6	96	48	2
STR	13	192	0
SI_	13	192	0	96	48	4
TAP	13	288	0
TAP	13	288	7
STR	14	0	6
SI_	14	0	6	96	48	3
STR	14	96	1
SI_	14	96	1	96	48	5
STR	14	192	7
SI_	14	192	7	96	48	3
TAP	14	288	0
TAP	14	288	7
TAP	15	0	1
TAP	15	32	0
TAP	15	64	1
TAP	15	96	6
TAP	15	128	7
TAP	15	160	6
TAP	15	192	2
TAP	15	224	3
TAP	15	256	2
TAP	15	288	5
TAP	15	320	4
TAP	15	352	5
TAP	16	0	0
TAP	16	0	4
TAP	16	72	2
TAP	16	72	6
TAP	16	144	0
TAP	16	144	4
TAP	16	192	3
TAP	16	192	7
TAP	16	264	1
TAP	16	264	5
TAP	16	336	3
TAP	16	336	7
HLD	17	0	0	336
HLD	17	0	4	336
TAP	18	0	0
TAP	18	48	3
TAP	18	96	2
TAP	18	144	6
TAP	18	192	4
TAP	18	192	5
TAP	18	240	3
TAP	18	240	6
HLD	18	336	2	96
TAP	19	48	7
STR	19	96	1
SI_	19	96	1	96	48	4
STR	19	144	0
SI_	19	144	0	96	48	5
TAP	19	192	1
TAP	19	240	0
TAP	20	0	1
TAP	20	48	3
TAP	20	96	2
TAP	20	144	6
TAP	20	192	4
HLD	20	240	5	96
HLD	20	336	7	96
TAP	21	48	0
TAP	21	96	1
TAP	21	144	6
TAP	21	192	0
TAP	21	192	7
TAP	21	240	1
TAP	21	240	6
TAP	21	288	2
TAP	21	288	5
TAP	22	0	5
TAP	22	48	7
TAP	22	96	6
TAP	22	144	2
TAP	22	192	0
HLD	22	240	1	96
HLD	22	336	3	96
TAP	23	48	4
TAP	23	96	5
STR	23	144	6
SCR	23	144	6	96	48	1
TAP	23	240	3
TAP	23	288	3
TAP	24	0	2
TAP	24	48	4
TAP	24	96	3
TAP	24	144	5
HLD	24	192	1	96
STR	24	192	7
SI_	24	192	7	96	48	3
STR	25	0	0
SI_	25	0	0	96	48	4
HLD	25	0	5	96
TAP	25	144	6
TAP	25	240	3
TAP	25	264	4
TAP	25	288	3
TAP	25	312	4
TAP	25	336	3
TAP	25	360	4
STR	26	0	3
SCL	26	0	3	96	48	0
TAP	26	48	4
TAP	26	96	5
TAP	26	144	6
STR	26	192	6
SCL	26	192	6	96	48	3
TAP	26	240	7
TAP	26	288	0
TAP	26	336	1
STR	27	0	1
SCL	27	0	1	96	48	6
TAP	27	48	2
TAP	27	96	3
TAP	27	144	4
STR	27	192	4
SCL	27	192	4	96	48	1
TAP	27	240	5
TAP	27	288	6
TAP	27	336	7
STR	28	0	7
SCR	28	0	7	96	48	2
TAP	28	48	6
TAP	28	96	5
TAP	28	144	4
STR	28	192	4
SCR	28	192	4	96	48	7
TAP	28	240	3
TAP	28	288	2
TAP	28	336	1
STR	29	0	1
SCR	29	0	1	96	48	4
TAP	29	48	0
TAP	29	96	7
TAP	29	144	6
STR	29	192	6
SCR	29	192	6	96	48	1
TAP	29	240	5
TAP	29	288	4
TAP	29	336	3
TAP	30	0	3
TAP	30	48	4
TAP	30	96	2
HLD	30	144	6	96
TAP	30	240	5
TAP	30	288	6
TAP	30	336	5
TAP	31	0	7
TAP	31	48	0
TAP	31	96	6
HLD	31	144	2	96
TAP	31	240	1
TAP	31	288	2
TAP	31	336	1
TAP	32	0	0
TAP	32	48	4
TAP	32	96	2
HLD	32	144	6	144
HLD	32	192	1	96
STR	33	0	0
SLR	33	0	0	96	192	5
STR	33	0	4
SLR	33	0	4	96	192	1
TAP	34	0	2
TAP	34	48	3
TAP	34	96	1
TAP	34	96	4
TAP	34	144	2
TAP	34	192	3
TAP	34	240	2
TAP	34	288	4
TAP	34	312	3
TAP	34	336	4
TAP	34	360	3
TAP	35	0	5
TAP	35	48	4
TAP	35	96	3
TAP	35	96	6
TAP	35	144	5
TAP	35	192	4
TAP	35	240	5
TAP	35	288	3
TAP	35	312	4
TAP	35	336	3
TAP	35	360	4
TAP	36	0	1
TAP	36	48	0
TAP	36	96	2
TAP	36	96	7
TAP	36	144	1
TAP	36	192	0
TAP	36	240	1
TAP	36	288	7
TAP	36	312	0
TAP	36	336	7
TAP	36	360	0
TAP	37	0	6
TAP	37	48	7
TAP	37	96	0
TAP	37	96	5
TAP	37	144	6
TAP	37	192	6
TAP	37	192	7
TAP	37	240	0
TAP	37	240	5
BRK	37	288	1
BRK	37	288	4
TAP	38	0	5
TAP	38	48	4
TAP	38	96	3
TAP	38	96	6
TAP	38	144	5
TAP	38	192	4
TAP	38	240	5
TAP	38	288	3
TAP	38	288	6
STR	38	336	5
SCR	38	336	5	96	48	0
TAP	39	48	4
TAP	39	96	3
STR	39	144	2
SCL	39	144	2	96	48	7
HLD	39	288	4	144
STR	40	48	3
SF_	40	48	3	96	144	7
TAP	40	96	2
TAP	40	96	5
TAP	40	144	3
STR	41	0	0
SXL	41	0	0	96	192	7
STR	41	0	4
SXL	41	0	4	96	192	3
TAP	42	0	3
TAP	42	24	4
TAP	42	48	3
TAP	42	96	6
TAP	42	144	1
TAP	42	192	4
TAP	42	216	3
TAP	42	240	4
TAP	42	288	1
TAP	42	336	6
TAP	43	0	2
TAP	43	24	3
TAP	43	48	2
TAP	43	96	7
TAP	43	144	0
TAP	43	192	5
TAP	43	216	4
TAP	43	240	5
TAP	43	288	0
TAP	43	336	7
TAP	44	0	2
TAP	44	24	4
TAP	44	48	3
TAP	44	96	6
TAP	44	144	0
TAP	44	192	5
TAP	44	216	3
TAP	44	240	4
TAP	44	288	1
TAP	44	336	7
TAP	45	0	3
TAP	45	24	4
TAP	45	48	3
TAP	45	96	7
TAP	45	144	0
TAP	45	192	1
TAP	45	192	6
TAP	45	240	2
TAP	45	240	5
TAP	45	288	3
TAP	45	288	4
TAP	46	0	1
TAP	46	24	0
TAP	46	48	1
TAP	46	96	4
TAP	46	144	3
TAP	46	192	6
TAP	46	216	7
TAP	46	240	6
TAP	46	288	3
STR	46	336	4
SXL	46	336	4	96	144	7
TAP	47	48	0
TAP	47	96	1
TAP	47	144	2
TAP	47	288	3
TAP	47	288	4
TAP	48	0	5
TAP	48	24	4
TAP	48	48	5
TAP	48	96	4
TAP	48	96	5
TAP	48	144	3
TAP	48	144	6
TAP	48	192	2
TAP	48	216	3
TAP	48	240	2
TAP	48	288	2
TAP	48	288	3
TAP	48	336	1
TAP	48	336	4
STR	49	0	0
SUR	49	0	0	96	96	3
TAP	49	144	5
TAP	49	192	5
TAP	49	240	4
TAP	49	264	3
TAP	49	288	4
TAP	49	312	3
TAP	49	336	4
TAP	49	360	3
STR	50	0	4
SCR	50	0	4	96	48	7
TAP	50	48	3
TAP	50	96	2
TAP	50	144	1
STR	50	192	1
SCR	50	192	1	96	48	4
TAP	50	240	0
TAP	50	288	7
TAP	50	336	6
STR	51	0	6
SCR	51	0	6	96	48	1
TAP	51	48	5
TAP	51	96	4
TAP	51	144	3
STR	51	192	3
SCR	51	192	3	96	48	6
TAP	51	240	2
TAP	51	288	1
TAP	51	336	0
STR	52	0	0
SCL	52	0	0	96	48	5
TAP	52	48	1
TAP	52	96	2
TAP	52	144	3
STR	52	192	3
SCL	52	192	3	96	48	0
TAP	52	240	4
TAP	52	288	5
TAP	52	336	6
STR	53	0	6
SCL	53	0	6	96	48	3
TAP	53	48	7
TAP	53	96	0
TAP	53	144	1
STR	53	192	1
SCL	53	192	1	96	48	6
TAP	53	240	2
TAP	53	288	3
TAP	53	336	4
TAP	54	0	4
TAP	54	48	0
TAP	54	96	6
HLD	54	144	2	96
TAP	54	240	1
TAP	54	288	2
TAP	54	336	1
TAP	55	0	3
TAP	55	48	7
TAP	55	96	1
HLD	55	144	5	96
TAP	55	240	6
TAP	55	288	5
TAP	55	336	6
HLD	56	48	0	96
HLD	56	48	7	96
STR	56	192	0
SI_	56	192	0	96	48	4
STR	56	192	7
SI_	56	192	7	96	48	3
BRK	57	0	1
BRK	57	0	5
BRK	57	72	2
BRK	57	72	6
BRK	57	144	0
BRK	57	144	4
TAP	58	0	1
TAP	58	48	4
TAP	58	96	2
TAP	58	120	3
TAP	58	144	2
TAP	58	192	6
TAP	58	240	3
TAP	58	288	5
TAP	58	312	4
TAP	58	336	5
TAP	59	0	0
TAP	59	48	4
TAP	59	96	1
TAP	59	120	3
TAP	59	144	1
TAP	59	192	7
TAP	59	240	3
TAP	59	288	6
TAP	59	312	4
TAP	59	336	6
STR	60	0	2
SI_	60	0	2	96	48	6
TAP	60	96	4
STR	60	144	4
SI_	60	144	4	96	48	0
TAP	60	240	1
TAP	60	288	1
STR	61	0	3
SXR	61	0	3	96	192	0
STR	61	0	7
SXR	61	0	7	96	192	4
TAP	62	0	6
TAP	62	48	3
TAP	62	96	5
TAP	62	120	4
TAP	62	144	5
TAP	62	192	1
TAP	62	240	4
TAP	62	288	2
TAP	62	312	3
TAP	62	336	2
TAP	63	0	7
TAP	63	48	3
TAP	63	96	6
TAP	63	120	4
TAP	63	144	6
TAP	63	192	0
TAP	63	240	4
TAP	63	288	1
TAP	63	312	3
TAP	63	336	1
STR	64	0	5
SI_	64	0	5	96	48	1
TAP	64	96	3
STR	64	144	3
SI_	64	144	3	96	48	7
TAP	64	240	6
TAP	64	288	6
STR	65	0	0
SXL	65	0	0	96	192	3
STR	65	0	4
SXL	65	0	4	96	192	7
TAP	66	0	3
TAP	66	48	5
TAP	66	96	1
TAP	66	120	3
TAP	66	144	2
TAP	66	192	4
TAP	66	240	2
TAP	66	288	6
TAP	66	312	4
TAP	66	336	5
STR	67	0	2
SLL	67	0	2	96	96	4
TAP	67	144	7
TAP	67	192	7
TAP	67	288	0
TAP	67	288	6
TAP	68	0	7
TAP	68	48	1
TAP	68	96	5
TAP	68	120	7
TAP	68	144	6
TAP	68	192	0
TAP	68	240	6
TAP	68	288	2
TAP	68	312	0
TAP	68	336	1
STR	69	0	6
SLL	69	0	6	96	96	0
TAP	69	144	3
TAP	69	192	3
TAP	69	288	2
TAP	69	288	4
TAP	70	0	3
TAP	70	48	4
TAP	70	96	2
TAP	70	120	3
TAP	70	144	1
TAP	70	192	4
TAP	70	240	3
TAP	70	288	5
TAP	70	312	4
TAP	70	336	6
TAP	71	0	3
TAP	71	48	4
TAP	71	96	1
TAP	71	120	0
TAP	71	144	2
TAP	71	192	4
TAP	71	240	3
TAP	71	288	6
TAP	71	312	7
TAP	71	336	5
HLD	72	0	4	96
HLD	72	0	5	96
TAP	72	192	3
TAP	72	192	4
TAP	72	240	2
TAP	72	240	4
TAP	72	312	1
TAP	72	312	4
STR	73	0	0
SV_	73	0	0	96	48	3
STR	73	0	4
SV_	73	0	4	96	48	7
BRK	73	192	2
BRK	73	192	6
TAP	73	288	1
TAP	73	288	5
TAP	73	336	0
TAP	73	336	6
STR	74	0	7
SI_	74	0	7	96	48	3
TAP	74	96	7
STR	74	192	0
SSL	74	192	0	96	96	4
TAP	74	288	0
STR	75	0	7
SF_	75	0	7	96	96	3
STR	75	288	1
SCR	75	288	1	96	96	5
STR	76	0	5
SCR	76	0	5	96	96	1
STR	76	96	1
SCR	76	96	1	96	96	5
STR	76	192	5
SCR	76	192	5	96	96	1
STR	76	288	1
SUR	76	288	1	96	120	3
HLD	77	0	6	96
TAP	77	192	4
TAP	77	240	3
TAP	77	288	2
TAP	77	288	5
STR	78	0	6
SI_	78	0	6	96	48	3
TAP	78	0	7
TAP	78	96	0
TAP	78	192	0
STR	78	192	1
SI_	78	192	1	96	48	4
TAP	78	288	7
STR	79	0	2
SCL	79	0	2	96	48	7
STR	79	0	6
SCL	79	0	6	96	48	3
HLD	79	192	2	96
HLD	79	192	6	96
STR	80	0	3
SCL	80	0	3	96	48	0
TAP	80	48	4
TAP	80	96	5
STR	80	144	6
SCL	80	144	6	96	48	3
TAP	80	192	7
TAP	80	240	0
TAP	80	288	1
TAP	80	336	2
STR	81	0	3
SCL	81	0	3	96	48	0
TAP	81	48	4
TAP	81	96	5
TAP	81	144	6
TAP	81	192	7
TAP	81	288	1
TAP	81	288	6
TAP	82	0	0
TAP	82	0	7
TAP	82	48	2
TAP	82	72	3
TAP	82	96	2
TAP	82	120	3
TAP	82	144	2
TAP	82	192	0
TAP	82	192	7
TAP	82	240	5
TAP	82	264	4
TAP	82	288	5
TAP	82	312	4
TAP	82	336	5
TAP	83	0	3
TAP	83	0	4
TAP	83	48	1
TAP	83	72	0
TAP	83	96	1
TAP	83	120	0
TAP	83	144	1
TAP	83	192	3
TAP	83	192	4
TAP	83	240	6
TAP	83	264	7
STR	83	288	6
SCL	83	288	6	96	96	2
TAP	83	312	7
TAP	83	336	6
STR	84	0	2
SCL	84	0	2	96	96	6
STR	84	96	6
SCL	84	96	6	96	96	2
STR	84	192	2
SCL	84	192	2	96	96	6
STR	84	288	6
SUL	84	288	6	96	120	4
HLD	85	0	1	96
TAP	85	192	3
TAP	85	216	4
TAP	85	240	3
TAP	85	288	2
TAP	85	288	5
STR	86	0	6
SI_	86	0	6	96	48	2
STR	86	0	7
SI_	86	0	7	96	48	3
TAP	86	48	0
TAP	86	48	5
TAP	86	96	6
TAP	86	96	7
STR	86	192	0
SI_	86	192	0	96	48	4
STR	86	192	1
SI_	86	192	1	96	48	5
TAP	86	240	2
TAP	86	240	7
TAP	86	288	0
TAP	86	288	1
STR	87	0	0
SI_	87	0	0	96	48	5
STR	87	0	7
SI_	87	0	7	96	48	2
TAP	87	48	1
TAP	87	48	6
TAP	87	96	0
TAP	87	96	7
TAP	87	192	3
TAP	87	192	4
TAP	87	288	1
TAP	87	288	6
STR	88	0	7
SCL	88	0	7	96	48	4
TAP	88	48	0
TAP	88	96	1
TAP	88	144	2
STR	88	192	3
SCL	88	192	3	96	48	0
TAP	88	240	4
TAP	88	288	5
TAP	88	336	6
STR	89	0	7
SUL	89	0	7	96	96	4
TAP	89	48	0
TAP	89	96	1
TAP	89	144	2
TAP	89	192	3
TAP	89	288	3
TAP	89	288	4
HLD	90	0	4	288
HLD	90	0	5	288
TAP	90	336	2
TAP	90	336	3
HLD	91	0	1	288
HLD	91	0	4	288
STR	92	0	0
SXR	92	0	0	96	192	5
STR	92	0	1
SXL	92	0	1	96	192	4
HLD	93	0	1	240
HLD	93	0	6	240
TAP	93	288	3
TAP	93	312	4
TAP	93	336	3
TAP	93	360	4
HLD	94	0	2	288
HLD	94	0	5	288
TAP	94	336	3
STR	94	336	7
SF_	94	336	7	96	96	3
TAP	95	240	0
TAP	95	264	7
TAP	95	288	1
TAP	95	288	6
STR	96	0	1
SI_	96	0	1	96	48	4
TAP	96	0	7
TAP	96	96	1
STR	96	144	5
SI_	96	144	5	96	48	0
TAP	96	240	5
TAP	96	288	3
TAP	97	0	0
STR	97	0	6
SI_	97	0	6	96	48	3
TAP	97	96	6
STR	97	144	2
SI_	97	144	2	96	48	7
TAP	97	240	2
TAP	97	288	4
TAP	97	336	5
STR	98	0	1
SI_	98	0	1	96	48	5
TAP	98	48	0
TAP	98	96	1
STR	98	144	0
SCL	98	144	0	96	48	4
TAP	98	240	0
TAP	98	288	1
TAP	98	336	2
STR	99	0	6
SI_	99	0	6	96	48	2
TAP	99	48	7
TAP	99	96	6
STR	99	144	7
SCR	99	144	7	96	48	3
TAP	99	240	7
TAP	99	288	6
TAP	99	336	5
STR	100	0	0
SI_	100	0	0	96	48	4
STR	100	48	7
SI_	100	48	7	96	48	5
STR	100	96	0
SI_	100	96	0	96	48	3
STR	100	144	7
SI_	100	144	7	96	48	4
STR	100	192	0
SI_	100	192	0	96	48	2
STR	100	240	7
SI_	100	240	7	96	48	3
STR	100	288	0
SI_	100	288	0	96	48	5
STR	100	336	7
SI_	100	336	7	96	48	2
STR	101	0	0
SI_	101	0	0	96	48	4
STR	101	48	7
SCL	101	48	7	96	144	0
TAP	101	96	0
TAP	101	144	7
BRK	102	0	2
BRK	102	0	6
TAP	102	96	3
TAP	102	96	7
BRK	102	144	1
BRK	102	144	5
TAP	102	240	0
TAP	102	240	4
BRK	102	288	2
BRK	102	288	6

T_REC_TAP	550
T_REC_BRK	16
T_REC_XTP	0
T_REC_HLD	42
T_REC_XHO	0
T_REC_STR	110
T_REC_BST	0
T_REC_XST	0
T_REC_TTP	0
T_REC_THO	0
T_REC_SLD	110
T_REC_ALL	828
T_NUM_TAP	660
T_NUM_BRK	16
T_NUM_HLD	42
T_NUM_SLD	110
T_NUM_ALL	828
T_JUDGE_TAP	676
T_JUDGE_HLD	152
T_JUDGE_SLD	110
T_JUDGE_ALL	938
TTM_EACHPAIRS	105
TTM_SCR_TAP	330000
TTM_SCR_BRK	41600
TTM_SCR_HLD	42000
TTM_SCR_SLD	165000
TTM_SCR_ALL	578600
TTM_SCR_S	559700
TTM_SCR_SS	577000
TTM_RAT_ACV	10027

