VERSION	0.00.00	1.03.00
FES_MODE	0
BPM_DEF	178.000	178.000	178.000	178.000
MET_DEF	4	4
RESOLUTION	384
CLK_DEF	384
COMPATIBLE_CODE	MA2

BPM	0	0	178.000
MET	0	0	4	4

HLD	1	0	2	336
HLD	1	0	3	336
HLD	2	0	3	336
HLD	2	0	4	336
HLD	3	0	4	336
HLD	3	0	5	336
STR	4	0	3
SCL	4	0	3	96	96	0
STR	4	0	4
SCR	4	0	4	96	96	7
BRK	4	288	1
BRK	4	288	6
TAP	5	0	2
TAP	5	48	2
TAP	5	96	3
TAP	5	192	2
TAP	5	192	4
TAP	5	288	1
TAP	5	288	5
TAP	6	0	5
TAP	6	48	5
TAP	6	96	4
TAP	6	192	3
TAP	6	192	5
TAP	6	288	2
TAP	6	288	6
TAP	7	0	3
TAP	7	48	3
TAP	7	96	4
TAP	7	192	2
TAP	7	192	5
STR	7	288	1
SXR	7	288	1	96	288	4
TAP	7	288	6
TAP	9	0	4
TAP	9	0	5
TAP	9	96	3
TAP	9	96	6
TAP	9	192	5
TAP	9	240	5
TAP	9	288	4
TAP	10	0	2
TAP	10	0	3
TAP	10	96	1
TAP	10	96	4
TAP	10	192	2
TAP	10	240	2
TAP	10	288	3
HLD	11	0	5	96
HLD	11	96	4	96
HLD	11	192	3	96
STR	11	288	2
SCL	11	288	2	96	192	5
TAP	12	288	0
TAP	12	288	7
TAP	13	0	2
TAP	13	0	3
TAP	13	96	1
TAP	13	96	4
TAP	13	192	2
TAP	13	240	2
TAP	13	288	3
TAP	14	0	4
TAP	14	0	5
TAP	14	96	3
TAP	14	96	6
TAP	14	192	5
TAP	14	240	5
TAP	14	288	4
HLD	15	0	0	336
HLD	15	0	7	336
STR	16	0	0
SI_	16	0	0	96	48	4
TAP	16	0	7
STR	16	192	6
SI_	16	192	6	96	48	2
STR	17	0	1
SCL	17	0	1	96	192	4
HLD	18	0	2	96
TAP	18	96	3
HLD	18	192	5	96
TAP	18	288	4
TAP	19	0	6
TAP	19	96	5
TAP	19	192	4
TAP	19	288	2
TAP	19	288	3
TAP	20	0	1
TAP	20	96	0
TAP	20	96	1
TAP	20	192	6
TAP	20	288	6
TAP	20	288	7
TAP	21	0	0
STR	21	96	1
SI_	21	96	1	96	96	4
STR	21	96	7
SI_	21	96	7	96	96	4
TAP	22	0	2
TAP	22	96	1
TAP	22	96	3
TAP	22	192	5
TAP	22	288	4
TAP	22	288	6
STR	23	0	3
SCL	23	0	3	96	96	0
SCR	23	0	3	96	96	6
TAP	23	288	6
TAP	23	288	7
HLD	24	0	0	96
HLD	24	96	1	96
HLD	24	192	2	96
STR	24	288	3
SCL	24	288	3	96	192	4
TAP	25	288	0
TAP	25	288	7
TAP	26	0	1
TAP	26	0	3
TAP	26	96	6
TAP	26	96	7
TAP	26	192	4
TAP	26	240	3
TAP	26	288	4
TAP	27	0	4
TAP	27	0	6
TAP	27	96	0
TAP	27	96	1
TAP	27	192	3
TAP	27	240	4
TAP	27	288	3
TAP	28	0	1
TAP	28	0	3
TAP	28	96	6
TAP	28	96	7
TAP	28	192	4
TAP	28	240	3
TAP	28	288	4
TAP	29	0	4
TAP	29	0	6
TAP	29	96	0
TAP	29	96	1
STR	29	144	0
SI_	29	144	0	96	72	5
STR	29	144	1
SI_	29	144	1	96	72	4
TAP	30	0	0
TAP	30	0	7
TAP	30	96	2
TAP	30	96	3
TAP	30	144	2
TAP	30	144	3
TAP	30	240	1
TAP	30	240	5
TAP	30	288	1
TAP	30	288	5
TAP	31	0	0
TAP	31	0	7
TAP	31	96	4
TAP	31	96	5
TAP	31	144	4
TAP	31	144	5
TAP	31	240	2
TAP	31	240	6
TAP	31	288	2
TAP	31	288	6
TAP	32	0	0
TAP	32	0	7
STR	32	96	3
SXR	32	96	3	96	96	1
STR	32	96	4
SXL	32	96	4	96	96	6
TAP	33	0	0
TAP	33	0	7
TAP	33	96	1
TAP	33	96	6
TAP	33	192	2
TAP	33	192	5
TAP	33	288	3
TAP	33	288	4
TAP	34	0	2
TAP	34	48	2
TAP	34	96	3
TAP	34	192	4
TAP	34	192	6
TAP	34	288	1
TAP	34	288	3
TAP	35	0	5
TAP	35	48	5
TAP	35	96	4
TAP	35	192	1
TAP	35	192	3
TAP	35	288	4
TAP	35	288	6
TAP	36	0	3
TAP	36	48	3
TAP	36	96	4
TAP	36	192	1
TAP	36	192	3
TAP	36	288	4
STR	36	288	6
SXL	36	288	6	96	288	3
TAP	38	0	5
TAP	38	48	5
TAP	38	96	4
TAP	38	192	1
TAP	38	192	3
TAP	38	288	4
TAP	38	288	6
TAP	39	0	2
TAP	39	48	2
TAP	39	96	3
TAP	39	192	4
TAP	39	192	6
TAP	39	288	1
TAP	39	288	3
TAP	40	0	4
TAP	40	48	4
TAP	40	96	3
TAP	40	192	4
TAP	40	192	6
STR	40	288	1
SXR	40	288	1	96	288	4
TAP	40	288	3
HLD	42	0	5	96
TAP	42	96	4
HLD	42	192	1	96
TAP	42	288	2
TAP	43	0	6
TAP	43	96	5
TAP	43	192	4
TAP	43	288	2
TAP	43	288	3
TAP	44	0	6
TAP	44	96	6
TAP	44	96	7
TAP	44	192	1
TAP	44	288	0
TAP	44	288	1
TAP	45	0	7
STR	45	96	0
SI_	45	96	0	96	96	3
STR	45	96	6
SI_	45	96	6	96	96	3
TAP	46	0	5
TAP	46	96	4
TAP	46	96	6
TAP	46	192	2
TAP	46	288	1
TAP	46	288	3
STR	47	0	4
SCL	47	0	4	96	96	1
SCR	47	0	4	96	96	7
TAP	47	288	0
TAP	47	288	1
HLD	48	0	7	96
HLD	48	96	6	96
HLD	48	192	5	96
STR	48	288	4
SCR	48	288	4	96	192	3
TAP	49	288	0
TAP	49	288	7
TAP	50	0	4
TAP	50	0	6
TAP	50	96	0
TAP	50	96	1
TAP	50	192	3
TAP	50	240	4
TAP	50	288	3
TAP	51	0	1
TAP	51	0	3
TAP	51	96	6
TAP	51	96	7
TAP	51	192	4
TAP	51	240	3
TAP	51	288	4
TAP	52	0	4
TAP	52	0	6
TAP	52	96	0
TAP	52	96	1
TAP	52	192	3
TAP	52	240	4
TAP	52	288	3
TAP	53	0	1
TAP	53	0	3
TAP	53	96	6
TAP	53	96	7
STR	53	144	6
SI_	53	144	6	96	72	3
STR	53	144	7
SI_	53	144	7	96	72	2
TAP	54	0	0
TAP	54	0	7
TAP	54	96	4
TAP	54	96	5
TAP	54	144	4
TAP	54	144	5
TAP	54	240	2
TAP	54	240	6
TAP	54	288	2
TAP	54	288	6
TAP	55	0	0
TAP	55	0	7
TAP	55	96	2
TAP	55	96	3
TAP	55	144	2
TAP	55	144	3
TAP	55	240	1
TAP	55	240	5
TAP	55	288	1
TAP	55	288	5
TAP	56	0	0
TAP	56	0	7
STR	56	96	0
SCR	56	96	0	96	96	3
STR	56	96	7
SCL	56	96	7	96	96	4
TAP	57	0	0
TAP	57	0	7
TAP	57	72	0
TAP	57	72	7
BRK	57	144	0
BRK	57	144	7
HLD	58	0	1	96
TAP	58	96	0
HLD	58	192	6	96
TAP	58	288	5
HLD	59	0	2	96
STR	59	96	3
SI_	59	96	3	96	96	7
TAP	60	0	1
TAP	60	48	1
TAP	60	96	7
TAP	60	192	6
TAP	60	240	6
STR	60	288	0
SI_	60	288	0	96	96	4
TAP	61	144	6
TAP	61	192	6
TAP	61	288	2
TAP	61	288	3
HLD	62	0	6	96
TAP	62	96	7
HLD	62	192	1	96
TAP	62	288	2
HLD	63	0	5	96
STR	63	96	4
SI_	63	96	4	96	96	0
TAP	64	0	6
TAP	64	48	6
TAP	64	96	0
TAP	64	192	1
TAP	64	240	1
STR	64	288	7
SI_	64	288	7	96	96	3
TAP	65	144	1
TAP	65	192	1
TAP	65	288	4
TAP	65	288	5
TAP	66	0	1
TAP	66	96	0
TAP	66	96	2
TAP	66	192	5
TAP	66	240	5
TAP	66	288	4
TAP	67	0	6
TAP	67	96	5
TAP	67	96	7
TAP	67	192	2
TAP	67	240	2
TAP	67	288	3
TAP	68	0	6
TAP	68	48	6
TAP	68	96	7
TAP	68	192	1
TAP	68	240	1
TAP	68	288	0
TAP	69	0	2
TAP	69	0	6
STR	69	96	0
SCR	69	96	0	96	96	3
STR	69	96	4
SCR	69	96	4	96	96	7
TAP	70	0	2
TAP	70	0	3
TAP	70	96	1
TAP	70	96	4
TAP	70	192	6
TAP	70	240	6
TAP	70	288	7
TAP	71	0	4
TAP	71	0	5
TAP	71	96	3
TAP	71	96	6
TAP	71	192	1
TAP	71	240	1
TAP	71	288	0
TAP	72	0	3
TAP	72	0	6
TAP	72	96	1
TAP	72	96	4
TAP	72	192	7
TAP	72	240	7
STR	72	288	0
SSL	72	288	0	96	192	4
HLD	74	0	6	192
HLD	74	192	4	192
HLD	75	0	3	192
TAP	75	192	1
HLD	76	0	1	192
HLD	76	192	3	192
HLD	77	0	4	192
TAP	77	192	6
HLD	78	0	6	192
HLD	78	192	7	192
HLD	79	0	0	192
HLD	79	192	1	192
TAP	80	0	2
TAP	80	96	1
TAP	80	192	0
TAP	80	288	7
TAP	81	0	6
TAP	81	96	5
TAP	81	192	3
TAP	81	192	4
TAP	82	0	1
TAP	82	48	1
TAP	82	96	0
TAP	82	192	6
TAP	82	240	6
TAP	82	288	7
TAP	83	0	0
TAP	83	0	1
TAP	83	96	2
TAP	83	96	3
TAP	83	192	4
TAP	83	192	5
TAP	83	288	6
TAP	83	288	7
TAP	84	0	0
TAP	84	48	0
TAP	84	96	5
TAP	84	192	7
TAP	84	240	7
TAP	84	288	2
TAP	85	0	0
TAP	85	0	1
TAP	85	96	6
TAP	85	96	7
TAP	85	192	4
TAP	85	192	5
TAP	85	288	2
TAP	85	288	3
TAP	86	0	1
TAP	86	48	1
TAP	86	96	3
TAP	86	192	6
TAP	86	240	6
TAP	86	288	4
TAP	87	0	3
TAP	87	0	4
TAP	87	96	2
TAP	87	96	5
TAP	87	192	1
TAP	87	192	6
TAP	87	288	0
TAP	87	288	7
TAP	88	0	2
TAP	88	48	2
TAP	88	96	0
TAP	88	192	5
TAP	88	240	5
TAP	88	288	7
TAP	89	0	2
TAP	89	48	2
STR	89	96	0
SI_	89	96	0	96	96	3
SI_	89	96	0	96	96	5
HLD	90	0	6	336
HLD	90	0	7	336
HLD	91	0	0	336
HLD	91	0	7	336
HLD	92	0	0	336
HLD	92	0	1	336
STR	93	0	0
SCR	93	0	0	96	96	3
STR	93	0	7
SCL	93	0	7	96	96	4
BRK	93	288	1
BRK	93	288	6
HLD	94	0	0	288
HLD	94	0	7	288
STR	94	336	0
SXL	94	336	0	96	240	3
STR	94	336	7
SXR	94	336	7	96	240	4
HLD	96	0	1	144
HLD	96	144	3	96
TAP	96	240	2
TAP	96	288	1
TAP	96	288	4
HLD	97	0	6	144
HLD	97	144	4	96
TAP	97	240	5
TAP	97	288	3
TAP	97	288	6
HLD	98	0	2	144
HLD	98	144	0	96
TAP	98	240	1
TAP	98	288	2
TAP	98	288	7
HLD	99	0	5	144
HLD	99	144	7	96
TAP	99	240	6
TAP	99	288	0
TAP	99	288	5
HLD	100	0	7	144
HLD	100	144	0	96
TAP	100	240	7
TAP	100	288	1
TAP	100	288	6
TAP	101	0	2
TAP	101	0	5
TAP	101	96	1
TAP	101	96	3
TAP	101	192	4
TAP	101	192	6
TAP	101	288	0
TAP	101	288	7
HLD	102	0	2	96
HLD	102	0	3	96
HLD	102	144	4	96
HLD	102	144	5	96
BRK	102	288	0
BRK	102	288	7

T_REC_TAP	390
T_REC_BRK	8
T_REC_XTP	0
T_REC_HLD	59
T_REC_XHO	0
T_REC_STR	37
T_REC_BST	0
T_REC_XST	0
T_REC_TTP	0
T_REC_THO	0
T_REC_SLD	40
T_REC_ALL	534
T_NUM_TAP	427
T_NUM_BRK	8
T_NUM_HLD	59
T_NUM_SLD	40
T_NUM_ALL	534
T_JUDGE_TAP	435
T_JUDGE_HLD	221
T_JUDGE_SLD	40
T_JUDGE_ALL	696
TTM_EACHPAIRS	143
TTM_SCR_TAP	213500
TTM_SCR_BRK	20800
TTM_SCR_HLD	59000
TTM_SCR_SLD	60000
TTM_SCR_ALL	353300
TTM_SCR_S	341950
TTM_SCR_SS	352500
TTM_RAT_ACV	10022

