VERSION	0.00.00	1.03.00
FES_MODE	0
BPM_DEF	178.000	178.000	178.000	178.000
MET_DEF	4	4
RESOLUTION	384
CLK_DEF	384
COMPATIBLE_CODE	MA2

BPM	0	0	178.000
MET	0	0	4	4

TAP	1	0	0
TAP	1	96	1
TAP	1	192	2
TAP	1	192	3
TAP	2	0	7
TAP	2	96	6
TAP	2	192	4
TAP	2	192	5
TAP	3	0	0
TAP	3	96	1
STR	3	192	2
SUL	3	192	2	96	288	5
TAP	3	192	3
TAP	5	0	7
TAP	5	96	6
TAP	5	192	4
TAP	5	192	5
TAP	6	0	0
TAP	6	96	1
TAP	6	192	2
TAP	6	192	3
TAP	7	0	7
TAP	7	96	6
TAP	7	192	4
STR	7	192	5
SUR	7	192	5	96	288	2
TAP	9	0	1
TAP	9	96	1
TAP	9	192	0
TAP	9	288	0
TAP	10	0	1
TAP	10	96	1
TAP	10	192	0
TAP	10	192	1
TAP	11	0	6
TAP	11	96	6
TAP	11	192	7
TAP	11	288	7
TAP	12	0	6
TAP	12	96	6
TAP	12	192	6
TAP	12	192	7
TAP	13	0	2
TAP	13	96	2
TAP	13	192	3
TAP	13	288	3
TAP	14	0	2
TAP	14	96	2
TAP	14	192	2
TAP	14	192	3
STR	15	0	3
SI_	15	0	3	96	192	0
STR	15	0	4
SI_	15	0	4	96	192	7
STR	16	0	0
SXL	16	0	0	96	480	3
STR	16	0	7
SXR	16	0	7	96	480	4
TAP	18	0	0
TAP	18	96	0
TAP	18	192	1
TAP	18	288	1
TAP	19	0	2
TAP	19	96	2
TAP	19	192	3
TAP	19	288	3
TAP	20	0	4
TAP	20	96	4
TAP	20	192	5
TAP	20	288	5
TAP	21	0	6
TAP	21	96	6
TAP	21	192	0
TAP	21	192	7
TAP	22	0	7
TAP	22	96	7
TAP	22	192	6
TAP	22	288	6
TAP	23	0	5
TAP	23	96	5
TAP	23	192	4
TAP	23	288	4
TAP	24	0	3
TAP	24	96	3
TAP	24	192	2
TAP	24	288	2
TAP	25	0	1
TAP	25	96	1
TAP	25	192	0
TAP	25	192	7
HLD	26	0	2	192
TAP	26	192	3
HLD	27	0	5	192
TAP	27	192	4
HLD	28	0	1	192
TAP	28	192	2
HLD	29	0	6	192
TAP	29	192	5
HLD	30	0	1	192
TAP	30	192	0
HLD	31	0	6	192
TAP	31	192	7
HLD	32	0	2	192
TAP	32	192	1
HLD	33	0	5	192
TAP	33	192	6
TAP	34	0	3
TAP	34	96	2
TAP	34	192	0
TAP	34	192	1
TAP	35	0	4
TAP	35	96	5
TAP	35	192	6
TAP	35	192	7
TAP	36	0	3
TAP	36	96	2
TAP	36	192	0
STR	36	192	1
SUR	36	192	1	96	288	6
TAP	38	0	4
TAP	38	96	5
TAP	38	192	6
TAP	38	192	7
TAP	39	0	3
TAP	39	96	2
TAP	39	192	0
TAP	39	192	1
TAP	40	0	4
TAP	40	96	5
STR	40	192	6
SUL	40	192	6	96	288	1
TAP	40	192	7
TAP	42	0	0
TAP	42	96	0
TAP	42	192	1
TAP	42	288	1
TAP	43	0	2
TAP	43	96	2
TAP	43	192	2
TAP	43	192	3
TAP	44	0	7
TAP	44	96	7
TAP	44	192	6
TAP	44	288	6
TAP	45	0	5
TAP	45	96	5
TAP	45	192	4
TAP	45	192	5
TAP	46	0	0
TAP	46	96	0
TAP	46	192	1
TAP	46	288	1
TAP	47	0	2
TAP	47	96	2
TAP	47	192	2
TAP	47	192	3
TAP	48	0	7
TAP	48	96	7
TAP	48	192	6
TAP	48	288	6
TAP	49	0	4
TAP	49	0	5
TAP	49	96	4
TAP	49	96	5
TAP	49	192	3
TAP	49	192	6
HLD	50	0	1	192
TAP	50	192	0
HLD	51	0	6	192
TAP	51	192	7
HLD	52	0	2	192
TAP	52	192	1
HLD	53	0	5	192
TAP	53	192	6
HLD	54	0	2	192
TAP	54	192	3
HLD	55	0	5	192
TAP	55	192	4
HLD	56	0	1	192
TAP	56	192	2
HLD	57	0	6	192
TAP	57	192	5
TAP	58	0	0
TAP	58	96	1
TAP	58	192	2
TAP	58	288	3
TAP	59	0	4
TAP	59	96	5
TAP	59	192	4
TAP	59	192	6
TAP	60	0	7
TAP	60	96	6
TAP	60	192	5
TAP	60	288	4
TAP	61	0	3
TAP	61	96	2
TAP	61	192	1
TAP	61	192	3
TAP	62	0	3
TAP	62	96	2
TAP	62	192	1
TAP	62	288	0
TAP	63	0	7
TAP	63	96	6
TAP	63	192	5
TAP	63	192	7
TAP	64	0	4
TAP	64	96	5
TAP	64	192	6
TAP	64	288	7
TAP	65	0	0
TAP	65	96	1
TAP	65	192	0
TAP	65	192	2
TAP	66	0	2
TAP	66	96	2
TAP	66	96	3
TAP	66	192	5
TAP	66	288	4
TAP	66	288	5
TAP	67	0	2
TAP	67	96	2
TAP	67	96	3
TAP	67	192	1
TAP	67	192	4
TAP	68	0	5
TAP	68	96	4
TAP	68	96	5
TAP	68	192	2
TAP	68	288	2
TAP	68	288	3
TAP	69	0	5
TAP	69	96	4
TAP	69	96	5
TAP	69	192	3
TAP	69	192	6
TAP	70	0	1
TAP	70	96	0
TAP	70	96	1
TAP	70	192	6
TAP	70	288	6
TAP	70	288	7
TAP	71	0	1
TAP	71	96	0
TAP	71	96	1
TAP	71	192	2
TAP	71	192	7
TAP	72	0	6
TAP	72	96	6
TAP	72	96	7
TAP	72	192	1
TAP	72	288	0
TAP	72	288	1
TAP	73	0	6
TAP	73	96	6
TAP	73	96	7
BRK	73	192	0
BRK	73	192	5
HLD	74	0	2	192
HLD	74	192	4	192
TAP	75	0	3
TAP	75	96	3
TAP	75	192	3
HLD	76	0	5	192
HLD	76	192	3	192
TAP	77	0	4
TAP	77	96	4
TAP	77	192	4
HLD	78	0	1	192
HLD	78	192	3	192
TAP	79	0	2
TAP	79	96	2
TAP	79	192	2
HLD	80	0	6	192
HLD	80	192	4	192
TAP	81	0	5
TAP	81	96	5
TAP	81	192	5
TAP	82	0	7
TAP	82	96	7
TAP	82	192	6
TAP	82	288	6
TAP	83	0	6
TAP	83	0	7
TAP	83	96	0
TAP	83	96	5
TAP	83	192	1
TAP	83	192	4
TAP	83	288	2
TAP	83	288	3
TAP	84	0	0
TAP	84	96	0
TAP	84	192	1
TAP	84	288	1
TAP	85	0	0
TAP	85	0	1
TAP	85	96	2
TAP	85	96	7
TAP	85	192	3
TAP	85	192	6
TAP	85	288	4
TAP	85	288	5
TAP	86	0	4
TAP	86	96	4
TAP	86	192	5
TAP	86	288	5
TAP	87	0	4
TAP	87	0	5
TAP	87	96	3
TAP	87	96	6
TAP	87	192	2
TAP	87	192	7
TAP	87	288	0
TAP	87	288	1
TAP	88	0	3
TAP	88	96	3
TAP	88	192	2
TAP	88	288	2
TAP	89	0	2
TAP	89	0	3
TAP	89	96	1
TAP	89	96	4
TAP	89	192	0
TAP	89	192	5
TAP	90	0	1
TAP	90	0	4
TAP	90	96	3
TAP	90	192	4
TAP	90	288	5
TAP	91	0	3
TAP	91	0	6
TAP	91	96	4
TAP	91	192	3
TAP	91	288	2
TAP	92	0	1
TAP	92	0	4
TAP	92	96	2
TAP	92	192	3
STR	92	288	4
SI_	92	288	4	96	192	1
STR	92	288	5
SI_	92	288	5	96	192	0
TAP	94	0	1
TAP	94	0	6
TAP	94	96	0
TAP	94	192	7
TAP	94	288	0
TAP	94	288	7
TAP	95	0	1
TAP	95	0	6
TAP	95	96	1
TAP	95	96	6
TAP	96	0	0
TAP	96	96	1
TAP	96	192	2
TAP	96	288	3
TAP	97	0	4
TAP	97	96	5
TAP	97	192	6
TAP	97	288	7
TAP	98	0	7
TAP	98	96	6
TAP	98	192	5
TAP	98	288	4
TAP	99	0	3
TAP	99	96	2
TAP	99	192	1
TAP	99	288	0
TAP	100	0	0
TAP	100	0	7
TAP	100	96	0
TAP	100	96	7
TAP	100	192	1
TAP	100	192	6
TAP	100	288	1
TAP	100	288	6
TAP	101	0	2
TAP	101	0	5
TAP	101	96	2
TAP	101	96	5
TAP	101	192	3
TAP	101	192	4
TAP	101	288	3
TAP	101	288	4
TAP	102	0	3
TAP	102	96	4
TAP	102	192	3
TAP	102	192	4
BRK	102	288	1
BRK	102	288	6

T_REC_TAP	342
T_REC_BRK	4
T_REC_XTP	0
T_REC_HLD	24
T_REC_XHO	0
T_REC_STR	10
T_REC_BST	0
T_REC_XST	0
T_REC_TTP	0
T_REC_THO	0
T_REC_SLD	10
T_REC_ALL	390
T_NUM_TAP	352
T_NUM_BRK	4
T_NUM_HLD	24
T_NUM_SLD	10
T_NUM_ALL	390
T_JUDGE_TAP	356
T_JUDGE_HLD	96
T_JUDGE_SLD	10
T_JUDGE_ALL	462
TTM_EACHPAIRS	78
TTM_SCR_TAP	176000
TTM_SCR_BRK	10400
TTM_SCR_HLD	24000
TTM_SCR_SLD	15000
TTM_SCR_ALL	225400
TTM_SCR_S	218250
TTM_SCR_SS	225000
TTM_RAT_ACV	10017

