VERSION	0.00.00	1.03.00
FES_MODE	0
BPM_DEF	178.000	178.000	178.000	178.000
MET_DEF	4	4
RESOLUTION	384
CLK_DEF	384
COMPATIBLE_CODE	MA2

BPM	0	0	178.000
MET	0	0	4	4

TAP	1	0	0
TAP	2	0	0
STR	3	0	7
SI_	3	0	7	96	288	3
TAP	5	0	4
TAP	5	192	4
TAP	6	0	4
TAP	6	0	5
TAP	7	0	3
TAP	7	192	3
TAP	8	0	2
TAP	8	0	3
TAP	9	0	1
TAP	9	192	1
TAP	10	0	0
TAP	10	192	0
TAP	11	0	7
TAP	11	192	7
HLD	12	0	6	192
TAP	13	0	6
TAP	13	192	6
TAP	14	0	7
TAP	14	192	7
TAP	15	0	0
TAP	15	0	7
STR	16	0	0
SI_	16	0	0	96	288	3
STR	16	0	7
SI_	16	0	7	96	288	4
TAP	18	0	0
TAP	18	192	0
TAP	19	0	1
TAP	19	96	1
TAP	19	192	1
TAP	20	0	2
TAP	20	192	2
TAP	21	0	3
TAP	21	96	3
TAP	21	192	3
TAP	22	0	4
TAP	22	192	4
TAP	23	0	5
TAP	23	96	5
TAP	23	192	5
TAP	24	0	6
TAP	24	192	6
TAP	25	0	0
TAP	25	0	7
STR	26	0	7
SI_	26	0	7	96	288	3
STR	28	0	0
SI_	28	0	0	96	288	4
TAP	30	0	4
TAP	30	192	4
TAP	31	0	5
TAP	31	192	5
TAP	32	0	6
TAP	32	192	6
BRK	33	0	0
BRK	33	0	7
TAP	34	0	0
TAP	34	96	0
TAP	34	192	0
TAP	35	0	1
TAP	35	96	1
TAP	35	192	1
TAP	36	0	2
TAP	36	96	2
TAP	36	192	2
TAP	37	0	3
TAP	37	96	3
TAP	37	192	3
TAP	37	192	4
TAP	38	0	4
TAP	38	96	4
TAP	38	192	4
TAP	39	0	5
TAP	39	96	5
TAP	39	192	5
TAP	40	0	6
TAP	40	96	6
TAP	40	192	6
HLD	41	0	0	192
HLD	41	0	7	192
TAP	42	0	7
TAP	42	192	7
TAP	43	0	6
TAP	43	96	6
TAP	43	192	6
TAP	44	0	5
TAP	44	192	5
TAP	45	0	4
TAP	45	96	3
TAP	45	192	4
TAP	46	0	3
TAP	46	192	3
TAP	47	0	2
TAP	47	96	2
TAP	47	192	2
TAP	48	0	1
TAP	48	192	1
TAP	49	0	0
TAP	49	0	7
TAP	49	192	0
TAP	49	192	7
STR	50	0	6
SI_	50	0	6	96	288	3
STR	52	0	1
SI_	52	0	1	96	288	4
TAP	54	0	4
TAP	54	96	4
TAP	54	192	4
TAP	55	0	5
TAP	55	96	5
TAP	55	192	5
TAP	56	0	6
TAP	56	96	6
TAP	56	192	6
BRK	57	0	0
BRK	57	0	7
TAP	58	0	0
TAP	58	192	0
TAP	59	0	0
TAP	59	0	1
TAP	59	192	0
TAP	59	192	1
TAP	60	0	2
TAP	60	192	2
TAP	61	0	2
TAP	61	0	3
TAP	61	192	2
TAP	61	192	3
TAP	62	0	4
TAP	62	192	4
TAP	63	0	4
TAP	63	0	5
TAP	63	192	4
TAP	63	192	5
TAP	64	0	6
TAP	64	192	6
TAP	65	0	6
TAP	65	0	7
TAP	65	192	6
TAP	65	192	7
TAP	66	0	7
TAP	66	96	7
TAP	66	192	7
TAP	67	0	6
TAP	67	96	6
TAP	67	192	6
TAP	68	0	5
TAP	68	96	5
TAP	68	192	4
TAP	68	288	4
TAP	69	0	3
TAP	69	96	3
TAP	69	192	3
TAP	69	192	4
TAP	70	0	2
TAP	70	96	2
TAP	70	192	2
TAP	71	0	1
TAP	71	96	1
TAP	71	192	1
TAP	72	0	0
TAP	72	96	7
TAP	72	192	0
BRK	73	0	0
BRK	73	0	7
STR	74	0	0
SI_	74	0	0	96	288	4
STR	76	0	7
SI_	76	0	7	96	288	3
TAP	78	0	0
TAP	78	96	0
TAP	78	192	0
TAP	79	0	1
TAP	79	96	1
TAP	79	192	1
TAP	80	0	2
TAP	80	96	2
TAP	80	192	3
TAP	80	288	3
TAP	81	0	4
TAP	81	96	4
TAP	81	192	3
TAP	81	192	4
TAP	82	0	4
TAP	82	96	4
TAP	82	192	4
TAP	83	0	5
TAP	83	96	5
TAP	83	192	5
TAP	84	0	6
TAP	84	96	6
TAP	84	192	6
HLD	85	0	0	192
HLD	85	0	7	192
TAP	86	0	7
TAP	86	192	7
TAP	87	0	6
TAP	87	192	6
TAP	88	0	5
TAP	88	96	5
TAP	88	192	4
TAP	88	288	4
TAP	89	0	3
TAP	89	96	3
TAP	89	192	3
TAP	89	192	4
TAP	90	0	4
TAP	90	0	5
TAP	91	0	2
TAP	91	0	3
HLD	92	0	3	192
HLD	92	0	4	192
TAP	93	0	2
TAP	93	0	5
STR	94	0	6
SI_	94	0	6	96	288	2
TAP	96	0	0
TAP	96	192	0
TAP	97	0	7
TAP	97	192	7
TAP	98	0	0
TAP	98	0	1
TAP	98	192	0
TAP	98	192	1
TAP	99	0	6
TAP	99	0	7
TAP	99	192	6
TAP	99	192	7
TAP	100	0	1
TAP	100	96	0
TAP	100	192	1
TAP	101	0	6
TAP	101	96	7
TAP	101	192	6
HLD	102	0	1	288
HLD	102	0	6	288

T_REC_TAP	205
T_REC_BRK	6
T_REC_XTP	0
T_REC_HLD	9
T_REC_XHO	0
T_REC_STR	10
T_REC_BST	0
T_REC_XST	0
T_REC_TTP	0
T_REC_THO	0
T_REC_SLD	10
T_REC_ALL	240
T_NUM_TAP	215
T_NUM_BRK	6
T_NUM_HLD	9
T_NUM_SLD	10
T_NUM_ALL	240
T_JUDGE_TAP	221
T_JUDGE_HLD	40
T_JUDGE_SLD	10
T_JUDGE_ALL	271
TTM_EACHPAIRS	33
TTM_SCR_TAP	107500
TTM_SCR_BRK	15600
TTM_SCR_HLD	9000
TTM_SCR_SLD	15000
TTM_SCR_ALL	147100
TTM_SCR_S	142150
TTM_SCR_SS	146500
TTM_RAT_ACV	10040

