VERSION	0.00.00	1.03.00
FES_MODE	0
BPM_DEF	180.000	180.000	180.000	180.000
MET_DEF	4	4
RESOLUTION	384
CLK_DEF	384
COMPATIBLE_CODE	MA2

BPM	0	0	180.000
MET	0	0	4	4

BRK	1	0	1
TAP	1	192	3
TAP	2	0	5
TAP	2	192	7
TAP	3	0	6
TAP	3	192	4
TAP	4	0	2
TAP	4	192	0
TAP	5	0	6
TAP	5	0	7
TAP	5	192	2
TAP	5	192	3
TAP	6	0	0
TAP	6	0	1
TAP	6	192	4
TAP	6	192	5
TAP	7	0	0
TAP	7	0	7
TAP	7	96	1
TAP	7	96	6
TAP	7	192	2
TAP	7	192	5
TAP	7	288	3
TAP	7	288	4
TAP	8	0	2
TAP	8	0	5
STR	8	48	2
SUR	8	48	2	96	96	7
STR	8	48	5
SUL	8	48	5	96	96	0
STR	9	0	1
SI_	9	0	1	96	48	4
TAP	9	48	7
TAP	9	96	7
STR	9	192	6
SI_	9	192	6	96	48	3
TAP	9	240	0
TAP	9	288	0
STR	10	0	1
SI_	10	0	1	96	48	4
TAP	10	48	7
TAP	10	96	7
STR	10	192	6
SI_	10	192	6	96	48	3
TAP	10	240	0
TAP	10	288	0
STR	11	0	1
SCR	11	0	1	96	48	4
TAP	11	48	7
TAP	11	96	7
STR	11	192	6
SCL	11	192	6	96	48	3
TAP	11	240	0
TAP	11	288	0
STR	12	0	1
SCR	12	0	1	96	48	4
TAP	12	48	7
TAP	12	96	7
STR	12	192	6
SCL	12	192	6	96	48	3
TAP	12	240	0
TAP	12	288	0
STR	13	0	2
SI_	13	0	2	96	48	7
TAP	13	48	4
TAP	13	96	4
STR	13	192	5
SI_	13	192	5	96	48	0
TAP	13	240	3
TAP	13	288	3
STR	14	0	2
SI_	14	0	2	96	48	7
TAP	14	48	4
TAP	14	96	4
STR	14	192	5
SI_	14	192	5	96	48	0
TAP	14	240	3
TAP	14	288	3
STR	15	0	3
SUL	15	0	3	96	48	7
TAP	15	48	4
TAP	15	96	4
STR	15	192	4
SUR	15	192	4	96	48	0
TAP	15	240	3
TAP	15	288	3
TAP	16	0	2
TAP	16	0	5
TAP	16	48	2
TAP	16	48	5
TAP	16	96	2
TAP	16	96	5
TAP	16	144	2
TAP	16	144	5
TAP	16	192	3
TAP	16	216	4
TAP	16	240	3
TAP	16	264	4
TAP	16	288	3
STR	17	0	0
SI_	17	0	0	96	48	5
STR	17	0	1
SI_	17	0	1	96	48	4
STR	17	192	6
SI_	17	192	6	96	48	3
STR	17	192	7
SI_	17	192	7	96	48	2
STR	18	0	4
SI_	18	0	4	96	48	1
STR	18	0	5
SI_	18	0	5	96	48	0
STR	18	192	2
SI_	18	192	2	96	48	7
STR	18	192	3
SI_	18	192	3	96	48	6
STR	19	0	1
SI_	19	0	1	96	48	3
STR	19	0	5
SI_	19	0	5	96	48	7
STR	19	192	2
SI_	19	192	2	96	48	0
STR	19	192	6
SI_	19	192	6	96	48	4
STR	20	0	1
SI_	20	0	1	96	48	4
STR	20	0	5
SI_	20	0	5	96	48	0
STR	20	192	2
SI_	20	192	2	96	48	7
STR	20	192	6
SI_	20	192	6	96	48	3
STR	21	0	1
SI_	21	0	1	96	48	3
STR	21	0	4
SI_	21	0	4	96	48	0
STR	21	192	3
SI_	21	192	3	96	48	7
STR	21	192	6
SI_	21	192	6	96	48	4
STR	22	0	0
SI_	22	0	0	96	48	3
STR	22	0	5
SI_	22	0	5	96	48	0
STR	22	192	2
SI_	22	192	2	96	48	7
STR	22	192	7
SI_	22	192	7	96	48	4
STR	23	0	4
SCL	23	0	4	96	48	1
STR	23	0	5
SUL	23	0	5	96	48	0
STR	23	192	2
SUR	23	192	2	96	48	7
STR	23	192	3
SCR	23	192	3	96	48	6
STR	24	0	3
SI_	24	0	3	96	48	7
STR	24	0	4
SI_	24	0	4	96	48	0
TAP	24	192	3
TAP	24	192	4
BRK	24	288	1
BRK	24	288	6
STR	25	0	1
SI_	25	0	1	96	48	4
TAP	25	48	0
TAP	25	96	1
TAP	25	144	7
STR	25	192	6
SI_	25	192	6	96	48	3
TAP	25	240	7
TAP	25	288	6
TAP	25	336	0
STR	26	0	1
SI_	26	0	1	96	48	4
TAP	26	48	0
TAP	26	96	1
TAP	26	144	7
STR	26	192	6
SI_	26	192	6	96	48	3
TAP	26	240	7
TAP	26	288	6
TAP	26	336	0
STR	27	0	2
SI_	27	0	2	96	48	7
TAP	27	48	3
TAP	27	96	2
TAP	27	144	4
STR	27	192	5
SI_	27	192	5	96	48	0
TAP	27	240	4
TAP	27	288	5
TAP	27	336	2
STR	28	0	3
SUL	28	0	3	96	48	7
TAP	28	48	7
TAP	28	96	6
TAP	28	144	5
STR	28	192	4
SUR	28	192	4	96	48	0
TAP	28	240	0
TAP	28	288	1
TAP	28	336	2
STR	29	0	1
SI_	29	0	1	96	48	4
TAP	29	48	0
TAP	29	96	1
TAP	29	144	7
STR	29	192	6
SI_	29	192	6	96	48	3
TAP	29	240	7
TAP	29	288	6
TAP	29	336	0
STR	30	0	1
SI_	30	0	1	96	48	4
TAP	30	48	0
TAP	30	96	1
TAP	30	144	5
STR	30	192	6
SI_	30	192	6	96	48	3
TAP	30	240	7
TAP	30	288	6
TAP	30	336	2
STR	31	0	1
SI_	31	0	1	96	48	5
TAP	31	48	3
TAP	31	96	1
TAP	31	144	0
STR	31	192	6
SI_	31	192	6	96	48	2
TAP	31	240	4
TAP	31	288	6
TAP	31	336	7
TAP	32	0	1
TAP	32	48	1
TAP	32	96	6
TAP	32	144	6
TAP	32	192	0
TAP	32	216	7
TAP	32	240	0
TAP	32	264	7
TAP	32	288	0
TAP	32	312	7
TAP	32	336	0
TAP	32	360	7
BRK	33	0	1
BRK	33	0	6
TAP	36	192	4
TAP	36	288	3
HLD	37	0	2	192
HLD	37	192	3	192
HLD	38	0	4	144
TAP	38	144	5
TAP	38	192	5
TAP	38	288	3
TAP	38	336	4
HLD	39	0	3	144
TAP	39	144	5
TAP	39	192	4
TAP	39	240	3
TAP	39	288	2
TAP	39	336	3
HLD	40	0	4	96
HLD	40	96	5	96
TAP	40	192	2
TAP	40	288	3
TAP	40	336	4
HLD	41	0	5	192
HLD	41	192	4	192
HLD	42	0	3	144
TAP	42	144	2
TAP	42	192	2
TAP	42	288	4
TAP	42	336	3
HLD	43	0	4	144
TAP	43	144	3
TAP	43	192	4
TAP	43	240	5
TAP	43	288	4
TAP	43	336	3
STR	44	0	2
SCR	44	0	2	96	48	5
STR	45	0	2
SCR	45	0	2	96	48	4
TAP	45	48	2
TAP	45	96	2
STR	45	192	5
SCL	45	192	5	96	48	3
TAP	45	240	5
TAP	45	288	5
TAP	46	0	2
TAP	46	48	2
TAP	46	96	5
TAP	46	144	5
TAP	46	192	3
TAP	46	192	4
TAP	46	288	2
TAP	46	288	5
TAP	46	336	2
TAP	46	336	5
STR	47	0	6
SCL	47	0	6	96	48	4
TAP	47	48	6
TAP	47	96	6
STR	47	192	1
SCR	47	192	1	96	48	3
TAP	47	240	1
TAP	47	288	1
STR	48	0	3
SI_	48	0	3	96	48	0
STR	48	0	4
SI_	48	0	4	96	48	7
STR	48	192	1
SI_	48	192	1	96	48	3
STR	48	192	6
SI_	48	192	6	96	48	4
STR	49	0	2
SCR	49	0	2	96	48	4
STR	49	0	6
SCL	49	0	6	96	48	4
TAP	49	48	2
TAP	49	48	6
TAP	49	96	2
TAP	49	96	6
STR	49	192	1
SCR	49	192	1	96	48	3
STR	49	192	5
SCL	49	192	5	96	48	3
TAP	49	240	1
TAP	49	240	5
TAP	49	288	1
TAP	49	288	5
TAP	50	0	5
TAP	50	48	5
TAP	50	96	2
TAP	50	144	2
TAP	50	192	3
TAP	50	192	4
TAP	50	288	3
TAP	50	288	4
TAP	50	336	3
TAP	50	336	4
TAP	51	0	2
TAP	51	48	2
TAP	51	96	5
TAP	51	144	5
TAP	51	192	1
TAP	51	240	0
TAP	51	240	1
TAP	51	288	6
TAP	51	336	6
TAP	51	336	7
BRK	52	0	0
BRK	52	0	7
TAP	52	192	1
TAP	52	192	3
TAP	52	288	4
TAP	52	288	6
TAP	53	0	3
TAP	53	24	4
TAP	53	48	3
TAP	53	72	4
TAP	53	96	3
TAP	53	120	4
TAP	53	144	3
TAP	53	168	4
TAP	53	192	2
TAP	53	216	5
TAP	53	240	2
TAP	53	264	5
TAP	53	288	2
TAP	53	312	5
TAP	53	336	2
TAP	53	360	5
TAP	54	0	1
TAP	54	24	6
TAP	54	48	1
TAP	54	72	6
TAP	54	96	1
TAP	54	120	6
TAP	54	144	1
TAP	54	168	6
TAP	54	192	0
TAP	54	216	7
TAP	54	240	0
TAP	54	264	7
TAP	54	288	0
TAP	54	312	7
TAP	54	336	0
TAP	54	360	7
TAP	55	0	0
TAP	55	24	7
TAP	55	48	1
TAP	55	72	6
TAP	55	96	2
TAP	55	120	5
TAP	55	144	3
TAP	55	168	4
TAP	55	192	3
TAP	55	216	4
TAP	55	240	2
TAP	55	264	5
TAP	55	288	1
TAP	55	312	6
TAP	55	336	0
TAP	55	360	7
BRK	56	0	0
STR	56	192	2
SXR	56	192	2	96	48	0
STR	56	192	6
SXR	56	192	6	96	48	4
STR	57	0	1
SCR	57	0	1	96	48	4
STR	57	96	7
SCL	57	96	7	96	48	4
STR	57	192	1
SXL	57	192	1	96	48	3
STR	57	288	7
SXR	57	288	7	96	48	5
STR	58	0	0
SCR	58	0	0	96	96	5
TAP	58	96	0
BRK	58	144	7
BRK	58	192	7
TAP	58	288	1
TAP	58	336	0
TAP	58	336	2
STR	59	0	3
SCL	59	0	3	96	48	1
STR	59	0	7
SCL	59	0	7	96	48	5
TAP	59	96	3
TAP	59	96	7
STR	59	192	0
SCR	59	192	0	96	48	2
STR	59	192	4
SCR	59	192	4	96	48	6
STR	59	288	0
SI_	59	288	0	96	48	4
TAP	59	288	4
BST	60	0	0
SI_	60	0	0	96	48	2
SI_	60	0	0	96	48	6
BST	60	96	0
SI_	60	96	0	96	48	3
SI_	60	96	0	96	48	5
BRK	60	192	0
BRK	60	288	2
BRK	60	288	6
STR	61	0	6
SCL	61	0	6	96	48	3
STR	61	96	0
SCR	61	96	0	96	48	3
STR	61	192	6
SXR	61	192	6	96	48	4
STR	61	288	0
SXL	61	288	0	96	48	2
STR	62	0	7
SCL	62	0	7	96	96	2
TAP	62	96	7
BRK	62	144	0
BRK	62	192	0
TAP	62	288	2
TAP	62	288	6
TAP	62	336	1
TAP	62	336	5
STR	63	0	0
SI_	63	0	0	96	48	6
TAP	63	0	4
STR	63	96	5
SI_	63	96	5	96	48	2
STR	63	192	3
SI_	63	192	3	96	24	0
STR	63	288	7
SCL	63	288	7	96	96	3
SCR	63	288	7	96	96	3
BRK	64	0	7
STR	64	192	1
SXL	64	192	1	96	48	3
STR	64	192	5
SXL	64	192	5	96	48	7
STR	65	0	2
SCL	65	0	2	96	48	7
STR	65	96	4
SCR	65	96	4	96	48	7
STR	65	192	2
SUL	65	192	2	96	48	6
STR	65	288	4
SUR	65	288	4	96	48	0
STR	66	0	3
SXR	66	0	3	96	96	4
TAP	66	96	3
BRK	66	144	5
BRK	66	192	5
TAP	66	288	6
TAP	66	336	5
TAP	66	336	7
STR	67	0	0
SCR	67	0	0	96	48	2
STR	67	0	4
SCR	67	0	4	96	48	6
TAP	67	96	0
TAP	67	96	4
STR	67	192	3
SCL	67	192	3	96	48	1
STR	67	192	7
SCL	67	192	7	96	48	5
TAP	67	288	3
STR	67	288	7
SI_	67	288	7	96	48	3
BST	68	0	7
SI_	68	0	7	96	48	1
SI_	68	0	7	96	48	5
BST	68	96	7
SI_	68	96	7	96	48	2
SI_	68	96	7	96	48	4
BRK	68	192	7
BRK	68	288	1
BRK	68	288	5
STR	69	0	5
SCR	69	0	5	96	48	0
STR	69	96	3
SCL	69	96	3	96	48	0
STR	69	192	5
SUR	69	192	5	96	48	1
STR	69	288	3
SUL	69	288	3	96	48	7
STR	70	0	4
SXL	70	0	4	96	96	3
TAP	70	96	4
BRK	70	144	2
BRK	70	192	2
TAP	70	288	1
TAP	70	288	5
TAP	70	336	2
TAP	70	336	6
TAP	71	0	3
STR	71	0	7
SI_	71	0	7	96	48	1
STR	71	96	2
SI_	71	96	2	96	48	5
STR	71	192	4
SI_	71	192	4	96	24	7
TAP	71	288	3
BST	72	0	1
SCR	72	0	1	96	192	5
BST	72	0	5
SCR	72	0	5	96	192	1
TAP	73	0	3
TAP	73	0	4
TAP	73	48	3
STR	73	48	4
SI_	73	48	4	96	48	0
STR	73	144	3
SI_	73	144	3	96	48	7
STR	73	240	5
SCR	73	240	5	96	48	0
STR	73	336	2
SCL	73	336	2	96	48	7
STR	74	48	4
SUR	74	48	4	96	48	0
TAP	74	144	1
STR	74	192	1
SI_	74	192	1	96	48	4
SI_	74	192	1	96	48	5
TAP	74	288	1
STR	75	0	4
SCL	75	0	4	96	48	1
STR	75	0	5
SUL	75	0	5	96	48	0
STR	75	192	2
SUR	75	192	2	96	48	7
STR	75	192	3
SCR	75	192	3	96	48	6
STR	76	0	4
SF_	76	0	4	96	48	0
STR	76	192	3
SF_	76	192	3	96	48	7
TAP	77	0	2
TAP	77	0	5
STR	77	48	2
SI_	77	48	2	96	48	7
TAP	77	48	5
STR	77	144	4
SI_	77	144	4	96	48	0
STR	77	240	2
SCL	77	240	2	96	48	7
STR	77	336	5
SCR	77	336	5	96	48	0
STR	78	48	3
SUL	78	48	3	96	48	7
TAP	78	144	6
STR	78	192	6
SI_	78	192	6	96	48	1
SI_	78	192	6	96	48	3
TAP	78	288	6
STR	79	0	2
SCL	79	0	2	96	48	7
STR	79	0	6
SUR	79	0	6	96	48	3
STR	79	192	1
SUL	79	192	1	96	48	4
STR	79	192	5
SCR	79	192	5	96	48	0
STR	80	0	0
SI_	80	0	0	96	48	4
STR	80	0	7
SI_	80	0	7	96	48	5
STR	80	96	0
SI_	80	96	0	96	48	2
STR	80	96	7
SI_	80	96	7	96	48	3
TAP	80	192	0
TAP	80	192	7
BRK	80	288	1
BRK	80	288	6
TAP	81	0	3
TAP	81	0	4
TAP	81	48	2
STR	81	48	5
SI_	81	48	5	96	48	0
STR	81	144	3
SI_	81	144	3	96	48	7
STR	81	240	5
SCR	81	240	5	96	48	0
STR	81	336	2
SCL	81	336	2	96	48	7
STR	82	48	4
SUR	82	48	4	96	48	0
TAP	82	144	1
STR	82	192	1
SI_	82	192	1	96	48	4
SI_	82	192	1	96	48	6
TAP	82	288	1
STR	83	0	3
SF_	83	0	3	96	48	7
TAP	83	0	7
TAP	83	192	0
STR	83	192	4
SF_	83	192	4	96	48	0
STR	84	0	2
SUR	84	0	2	96	48	7
STR	84	0	5
SUL	84	0	5	96	48	0
TAP	84	192	5
TAP	84	216	4
TAP	84	264	2
TAP	84	288	3
TAP	84	336	7
TAP	84	360	0
BST	85	0	7
SSR	85	0	7	96	192	3
STR	86	0	1
SI_	86	0	1	96	48	4
HLD	86	0	5	96
TAP	86	96	1
STR	86	192	0
SI_	86	192	0	96	48	5
HLD	86	192	4	96
TAP	86	288	0
TAP	87	0	3
TAP	87	48	2
TAP	87	96	1
TAP	87	144	0
TAP	87	192	7
TAP	87	240	0
TAP	87	240	6
TAP	87	288	1
TAP	87	288	5
HLD	88	0	2	96
STR	88	0	6
SI_	88	0	6	96	48	3
TAP	88	96	6
HLD	88	192	3	96
STR	88	192	7
SI_	88	192	7	96	48	2
TAP	88	288	7
STR	89	0	0
SI_	89	0	0	96	48	3
TAP	89	0	7
TAP	89	96	0
STR	89	96	7
SI_	89	96	7	96	48	4
TAP	89	192	0
HLD	90	0	2	96
STR	90	0	6
SCL	90	0	6	96	48	3
TAP	90	96	6
HLD	90	192	3	96
STR	90	192	7
SUL	90	192	7	96	48	3
TAP	90	288	7
TAP	91	0	4
TAP	91	48	5
TAP	91	96	6
TAP	91	144	7
TAP	91	192	0
TAP	91	240	1
TAP	91	240	7
TAP	91	288	2
TAP	91	288	6
STR	92	0	1
SCR	92	0	1	96	48	4
HLD	92	0	5	96
TAP	92	96	1
STR	92	192	0
SUR	92	192	0	96	48	4
HLD	92	192	4	96
TAP	92	288	0
STR	93	0	7
SCL	93	0	7	96	192	0
TAP	94	0	2
TAP	94	48	3
TAP	94	96	2
TAP	94	144	4
TAP	94	192	2
TAP	94	240	3
TAP	94	288	1
TAP	94	336	1
TAP	95	0	5
TAP	95	48	4
TAP	95	96	5
TAP	95	144	3
TAP	95	192	5
TAP	95	240	4
TAP	95	288	6
TAP	95	336	6
TAP	96	0	2
TAP	96	48	3
TAP	96	96	1
TAP	96	144	1
TAP	96	192	5
TAP	96	240	4
TAP	96	288	6
TAP	96	336	0
TAP	97	0	5
TAP	97	48	4
TAP	97	96	6
TAP	97	144	6
TAP	97	192	2
TAP	97	240	3
TAP	97	288	1
TAP	97	336	7
TAP	98	0	2
TAP	98	48	3
TAP	98	96	0
TAP	98	144	0
TAP	98	192	5
TAP	98	240	4
TAP	98	288	7
TAP	98	336	0
TAP	99	0	5
TAP	99	48	4
TAP	99	96	7
TAP	99	144	7
TAP	99	192	2
TAP	99	240	3
TAP	99	288	0
TAP	99	336	7
TAP	100	0	2
TAP	100	48	3
TAP	100	96	0
TAP	100	144	1
TAP	100	144	6
TAP	100	192	5
TAP	100	240	4
TAP	100	288	7
TAP	100	336	1
TAP	100	336	6
TAP	101	0	0
TAP	101	24	7
TAP	101	48	0
TAP	101	72	7
TAP	101	96	0
TAP	101	120	7
TAP	101	144	0
TAP	101	168	7
TAP	101	192	0
BRK	101	288	1
BRK	101	288	6

T_REC_TAP	391
T_REC_BRK	27
T_REC_XTP	0
T_REC_HLD	18
T_REC_XHO	0
T_REC_STR	161
T_REC_BST	7
T_REC_XST	0
T_REC_TTP	0
T_REC_THO	0
T_REC_SLD	176
T_REC_ALL	780
T_NUM_TAP	552
T_NUM_BRK	34
T_NUM_HLD	18
T_NUM_SLD	176
T_NUM_ALL	780
T_JUDGE_TAP	586
T_JUDGE_HLD	48
T_JUDGE_SLD	176
T_JUDGE_ALL	810
TTM_EACHPAIRS	106
TTM_SCR_TAP	276000
TTM_SCR_BRK	88400
TTM_SCR_HLD	18000
TTM_SCR_SLD	264000
TTM_SCR_ALL	646400
TTM_SCR_S	623750
TTM_SCR_SS	643000
TTM_RAT_ACV	10052

