VERSION	0.00.00	1.03.00
FES_MODE	0
BPM_DEF	180.000	180.000	180.000	180.000
MET_DEF	4	4
RESOLUTION	384
CLK_DEF	384
COMPATIBLE_CODE	MA2

BPM	0	0	180.000
MET	0	0	4	4

TAP	1	0	1
TAP	1	96	2
TAP	1	192	3
STR	1	288	4
SUR	1	288	4	96	192	1
TAP	3	0	6
TAP	3	96	5
TAP	3	192	4
STR	3	288	3
SUL	3	288	3	96	192	6
TAP	5	0	2
TAP	5	96	3
TAP	5	192	4
STR	5	288	5
SUR	5	288	5	96	192	2
TAP	7	0	4
TAP	7	96	3
TAP	7	192	5
TAP	7	288	2
STR	8	0	3
SI_	8	0	3	96	96	0
STR	8	0	4
SI_	8	0	4	96	96	7
TAP	9	0	2
TAP	9	96	2
TAP	9	96	3
TAP	9	192	5
TAP	9	288	4
TAP	9	288	5
TAP	10	0	2
TAP	10	96	2
TAP	10	96	3
TAP	10	192	4
TAP	10	192	5
TAP	10	288	3
TAP	10	288	6
TAP	11	0	2
TAP	11	96	1
TAP	11	96	3
TAP	11	192	5
TAP	11	288	4
TAP	11	288	6
TAP	12	0	2
TAP	12	96	1
TAP	12	96	3
TAP	12	192	4
TAP	12	192	5
TAP	12	288	2
TAP	12	288	7
TAP	13	0	1
TAP	13	96	2
TAP	13	96	3
TAP	13	192	6
TAP	13	288	4
TAP	13	288	5
TAP	14	0	1
TAP	14	96	2
TAP	14	96	3
TAP	14	192	6
TAP	14	192	7
TAP	14	288	1
TAP	14	288	4
TAP	15	0	3
TAP	15	0	4
TAP	15	96	2
TAP	15	96	5
TAP	15	192	1
TAP	15	192	6
STR	15	288	0
SI_	15	288	0	96	96	3
STR	15	288	7
SI_	15	288	7	96	96	4
HLD	17	0	2	96
TAP	17	96	3
HLD	17	192	5	96
TAP	17	288	4
HLD	18	0	2	96
TAP	18	96	3
TAP	18	192	4
TAP	18	192	5
TAP	18	288	3
TAP	18	288	6
HLD	19	0	6	96
TAP	19	96	7
HLD	19	192	1	96
TAP	19	288	0
HLD	20	0	6	96
TAP	20	96	7
TAP	20	192	0
TAP	20	192	1
TAP	20	288	2
TAP	20	288	7
TAP	21	0	2
TAP	21	0	3
TAP	21	96	2
TAP	21	96	3
TAP	21	192	4
TAP	21	192	5
TAP	21	288	4
TAP	21	288	5
TAP	22	0	1
TAP	22	0	3
TAP	22	96	1
TAP	22	96	3
TAP	22	192	4
TAP	22	192	6
TAP	22	288	4
TAP	22	288	6
TAP	23	0	3
TAP	23	0	4
TAP	23	96	2
TAP	23	96	5
TAP	23	192	1
TAP	23	192	6
TAP	23	288	0
TAP	23	288	7
TAP	24	0	0
TAP	24	0	6
TAP	24	96	1
TAP	24	96	7
TAP	24	192	0
TAP	24	192	6
TAP	25	0	2
TAP	25	48	2
TAP	25	96	4
TAP	25	192	5
TAP	25	240	5
TAP	25	288	3
TAP	26	0	2
TAP	26	48	2
TAP	26	96	4
TAP	26	192	5
TAP	26	240	5
TAP	26	288	7
TAP	27	0	6
TAP	27	48	6
TAP	27	96	0
TAP	27	192	1
TAP	27	240	1
TAP	27	288	7
TAP	28	0	6
TAP	28	48	6
TAP	28	96	0
TAP	28	192	1
TAP	28	240	1
TAP	28	288	3
TAP	29	0	2
TAP	29	48	3
TAP	29	96	2
TAP	29	192	5
TAP	29	240	4
TAP	29	288	5
TAP	30	0	2
TAP	30	48	3
TAP	30	96	2
TAP	30	192	5
TAP	30	240	4
TAP	30	288	6
TAP	31	0	6
TAP	31	48	7
TAP	31	96	6
TAP	31	192	1
TAP	31	240	0
TAP	31	288	1
TAP	32	0	6
TAP	32	48	7
TAP	32	96	6
TAP	32	192	1
TAP	32	240	0
TAP	32	288	2
BST	33	0	3
SCL	33	0	3	96	1056	4
BST	33	0	4
SCR	33	0	4	96	1056	3
TAP	36	192	0
TAP	36	288	1
HLD	37	0	2	192
HLD	37	192	3	192
HLD	38	0	4	192
TAP	38	144	5
TAP	38	192	5
TAP	38	288	6
TAP	38	336	6
TAP	39	0	7
TAP	39	144	1
TAP	39	192	1
TAP	39	240	0
STR	39	288	0
SCL	39	288	0	96	192	4
SCR	39	288	0	96	192	3
TAP	40	288	3
TAP	40	336	3
HLD	41	0	6	192
HLD	41	192	7	192
HLD	42	0	0	192
TAP	42	144	1
TAP	42	192	1
TAP	42	288	2
TAP	42	336	2
TAP	43	0	3
TAP	43	144	5
TAP	43	192	5
TAP	43	240	4
STR	43	288	4
SCL	43	288	4	96	192	0
SCR	43	288	4	96	192	7
TAP	45	0	1
TAP	45	48	1
TAP	45	96	7
TAP	45	192	6
TAP	45	240	6
TAP	45	288	0
TAP	46	0	1
TAP	46	48	1
TAP	46	96	7
TAP	46	144	7
TAP	46	192	0
TAP	46	288	1
TAP	46	288	6
TAP	47	0	2
TAP	47	48	2
TAP	47	96	3
TAP	47	192	5
TAP	47	240	5
TAP	47	288	4
TAP	48	0	3
TAP	48	0	4
TAP	48	96	3
TAP	48	96	4
TAP	48	192	1
TAP	48	192	6
TAP	49	0	4
TAP	49	48	4
TAP	49	96	2
TAP	49	192	3
TAP	49	240	3
TAP	49	288	5
TAP	50	0	4
TAP	50	48	4
TAP	50	96	2
TAP	50	144	2
TAP	50	192	3
TAP	50	288	0
TAP	50	336	0
TAP	51	0	7
TAP	51	96	0
TAP	51	96	6
TAP	51	192	1
TAP	51	192	5
TAP	51	288	2
TAP	51	288	4
TAP	52	0	3
TAP	52	96	2
TAP	52	96	4
TAP	52	192	1
TAP	52	192	5
TAP	52	288	0
TAP	52	288	6
BST	53	0	1
SXL	53	0	1	96	480	0
BST	53	0	5
SXL	53	0	5	96	480	4
HLD	55	0	3	96
TAP	55	96	4
HLD	55	192	4	96
TAP	55	288	3
BRK	56	0	1
BRK	56	0	6
TAP	57	0	4
TAP	57	96	0
TAP	57	96	1
TAP	57	192	3
TAP	57	288	6
TAP	57	288	7
TAP	58	0	1
TAP	58	48	1
TAP	58	96	7
TAP	58	144	7
TAP	58	192	0
TAP	58	192	6
TAP	58	288	1
TAP	58	288	7
TAP	59	0	7
TAP	59	96	2
TAP	59	96	3
TAP	59	192	0
TAP	59	288	4
TAP	59	288	5
STR	60	0	2
SCL	60	0	2	96	96	7
STR	60	0	3
SCR	60	0	3	96	96	6
TAP	60	288	0
TAP	60	288	5
TAP	61	0	3
TAP	61	96	6
TAP	61	96	7
TAP	61	192	4
TAP	61	288	0
TAP	61	288	1
TAP	62	0	6
TAP	62	48	6
TAP	62	96	0
TAP	62	144	0
TAP	62	192	1
TAP	62	192	7
TAP	62	288	0
TAP	62	288	6
TAP	63	0	0
TAP	63	96	4
TAP	63	96	5
TAP	63	192	7
TAP	63	288	2
TAP	63	288	3
STR	64	0	4
SCL	64	0	4	96	96	1
STR	64	0	5
SCR	64	0	5	96	96	0
TAP	65	0	6
TAP	65	48	7
TAP	65	96	0
TAP	65	96	5
TAP	65	192	1
TAP	65	240	0
TAP	65	288	2
TAP	65	288	7
TAP	66	0	2
TAP	66	48	2
TAP	66	96	3
TAP	66	144	1
TAP	66	192	0
TAP	66	192	2
TAP	66	288	3
TAP	66	288	4
TAP	67	0	5
TAP	67	48	4
TAP	67	96	3
TAP	67	96	6
TAP	67	192	2
TAP	67	240	3
TAP	67	288	1
TAP	67	288	4
STR	68	0	0
SV_	68	0	0	96	96	2
STR	68	0	4
SV_	68	0	4	96	96	6
TAP	68	288	1
TAP	68	288	5
TAP	69	0	1
TAP	69	48	0
TAP	69	96	2
TAP	69	96	7
TAP	69	192	6
TAP	69	240	7
TAP	69	288	0
TAP	69	288	5
TAP	70	0	5
TAP	70	48	5
TAP	70	96	4
TAP	70	144	6
TAP	70	192	5
TAP	70	192	7
TAP	70	288	3
TAP	70	288	4
TAP	71	0	2
TAP	71	48	3
TAP	71	96	1
TAP	71	96	4
TAP	71	192	5
TAP	71	240	4
TAP	71	288	3
TAP	71	288	6
STR	72	0	3
SV_	72	0	3	96	96	1
STR	72	0	7
SV_	72	0	7	96	96	5
TAP	73	0	1
TAP	73	96	4
TAP	73	96	5
TAP	73	192	6
TAP	73	288	2
TAP	73	288	3
TAP	74	0	1
TAP	74	0	4
TAP	74	96	0
TAP	74	96	5
TAP	74	192	6
TAP	74	192	7
TAP	74	288	1
TAP	74	288	4
TAP	75	0	6
TAP	75	96	2
TAP	75	96	3
TAP	75	192	1
TAP	75	288	4
TAP	75	288	5
TAP	76	0	3
TAP	76	0	6
TAP	76	96	2
TAP	76	96	7
TAP	76	192	0
TAP	76	192	1
TAP	76	288	3
TAP	76	288	6
TAP	77	0	2
TAP	77	96	6
TAP	77	96	7
TAP	77	192	5
TAP	77	288	0
TAP	77	288	1
TAP	78	0	2
TAP	78	96	1
TAP	78	96	3
TAP	78	192	5
TAP	78	288	4
TAP	78	288	6
TAP	79	0	2
TAP	79	0	3
TAP	79	96	0
TAP	79	96	5
TAP	79	192	2
TAP	79	192	3
TAP	79	288	0
TAP	79	288	5
TAP	80	0	4
TAP	80	0	5
TAP	80	96	2
TAP	80	96	7
TAP	80	192	4
TAP	80	192	5
TAP	80	288	2
TAP	80	288	7
STR	81	0	6
SCL	81	0	6	96	96	3
STR	81	0	7
SCR	81	0	7	96	96	2
TAP	82	0	0
TAP	82	96	7
TAP	82	192	1
TAP	82	192	6
TAP	82	288	1
TAP	82	288	6
HLD	83	0	6	96
TAP	83	0	7
HLD	83	96	5	96
HLD	83	192	4	96
HLD	83	288	3	96
TAP	84	0	2
TAP	84	192	3
TAP	84	192	4
TAP	84	288	3
TAP	84	288	4
BRK	85	0	1
BRK	85	0	6
TAP	86	0	0
TAP	86	96	1
TAP	86	96	7
TAP	86	192	7
TAP	86	288	0
TAP	86	288	6
TAP	87	0	0
TAP	87	96	1
TAP	87	96	7
TAP	87	192	2
TAP	87	192	6
TAP	87	288	3
TAP	87	288	4
TAP	88	0	7
TAP	88	96	0
TAP	88	96	6
TAP	88	192	0
TAP	88	288	1
TAP	88	288	7
TAP	89	0	7
TAP	89	96	0
TAP	89	96	6
TAP	89	192	1
TAP	89	192	5
TAP	90	0	4
TAP	90	96	3
TAP	90	96	5
TAP	90	192	3
TAP	90	288	2
TAP	90	288	4
TAP	91	0	4
TAP	91	96	3
TAP	91	96	5
TAP	91	192	2
TAP	91	192	6
TAP	91	288	0
TAP	91	288	7
TAP	92	0	3
TAP	92	96	2
TAP	92	96	4
TAP	92	192	4
TAP	92	288	3
TAP	92	288	5
TAP	93	0	3
TAP	93	96	2
TAP	93	96	4
TAP	93	192	1
TAP	93	192	5
TAP	94	0	6
TAP	94	96	7
TAP	94	192	0
TAP	94	288	1
STR	95	0	2
SCL	95	0	2	96	96	7
STR	95	0	3
SCR	95	0	3	96	96	6
TAP	96	0	1
TAP	96	96	0
TAP	96	192	7
TAP	96	288	6
STR	97	0	4
SCL	97	0	4	96	96	1
STR	97	0	5
SCR	97	0	5	96	96	0
TAP	98	0	2
TAP	98	96	1
TAP	98	96	3
TAP	98	192	0
TAP	98	192	4
TAP	98	288	0
TAP	98	288	4
TAP	99	0	5
TAP	99	96	4
TAP	99	96	6
TAP	99	192	3
TAP	99	192	7
TAP	99	288	3
TAP	99	288	7
TAP	100	0	3
TAP	100	96	4
TAP	100	192	3
TAP	100	192	4
TAP	100	288	1
TAP	100	288	6
HLD	101	0	0	192
HLD	101	0	7	192
BRK	101	288	2
BRK	101	288	5

T_REC_TAP	460
T_REC_BRK	6
T_REC_XTP	0
T_REC_HLD	20
T_REC_XHO	0
T_REC_STR	23
T_REC_BST	4
T_REC_XST	0
T_REC_TTP	0
T_REC_THO	0
T_REC_SLD	29
T_REC_ALL	542
T_NUM_TAP	483
T_NUM_BRK	10
T_NUM_HLD	20
T_NUM_SLD	29
T_NUM_ALL	542
T_JUDGE_TAP	493
T_JUDGE_HLD	56
T_JUDGE_SLD	29
T_JUDGE_ALL	578
TTM_EACHPAIRS	143
TTM_SCR_TAP	241500
TTM_SCR_BRK	26000
TTM_SCR_HLD	20000
TTM_SCR_SLD	43500
TTM_SCR_ALL	331000
TTM_SCR_S	320100
TTM_SCR_SS	330000
TTM_RAT_ACV	10030

