VERSION	0.00.00	1.03.00
FES_MODE	0
BPM_DEF	180.000	180.000	180.000	180.000
MET_DEF	4	4
RESOLUTION	384
CLK_DEF	384
COMPATIBLE_CODE	MA2

BPM	0	0	180.000
MET	0	0	4	4

STR	1	0	0
SCR	1	0	0	96	480	3
STR	3	0	4
SCR	3	0	4	96	480	7
STR	5	0	7
SCL	5	0	7	96	480	4
STR	7	0	3
SCL	7	0	3	96	480	0
TAP	9	0	0
TAP	9	96	0
TAP	9	192	1
TAP	9	288	1
TAP	10	0	2
TAP	10	96	2
TAP	10	192	2
TAP	10	192	3
TAP	11	0	7
TAP	11	96	7
TAP	11	192	6
TAP	11	288	6
TAP	12	0	5
TAP	12	96	5
TAP	12	192	4
TAP	12	192	5
TAP	13	0	1
TAP	13	96	1
TAP	13	192	2
TAP	13	288	2
TAP	14	0	3
TAP	14	96	3
TAP	14	192	4
TAP	14	192	5
TAP	15	0	6
TAP	15	96	6
TAP	15	192	5
TAP	15	288	5
TAP	16	0	4
TAP	16	96	4
TAP	16	192	2
TAP	16	192	3
TAP	17	0	7
TAP	17	96	6
TAP	17	192	5
TAP	17	288	4
TAP	18	0	3
TAP	18	96	2
TAP	18	192	0
TAP	18	192	1
TAP	19	0	0
TAP	19	96	1
TAP	19	192	2
TAP	19	288	3
TAP	20	0	4
TAP	20	96	5
TAP	20	192	6
TAP	20	192	7
TAP	21	0	4
TAP	21	96	5
TAP	21	192	6
TAP	21	288	7
TAP	22	0	0
TAP	22	96	1
TAP	22	192	2
TAP	22	192	3
TAP	23	0	3
TAP	23	96	2
TAP	23	192	1
TAP	23	288	0
TAP	24	0	7
TAP	24	96	6
TAP	24	192	4
TAP	24	192	5
TAP	25	0	1
TAP	25	96	0
TAP	25	192	1
STR	25	288	0
SI_	25	288	0	96	192	4
TAP	27	0	6
TAP	27	96	7
TAP	27	192	6
STR	27	288	7
SI_	27	288	7	96	192	3
TAP	29	0	0
TAP	29	96	7
TAP	29	192	0
TAP	29	192	7
STR	29	288	0
SI_	29	288	0	96	192	3
STR	29	288	7
SI_	29	288	7	96	192	4
TAP	31	0	3
TAP	31	96	4
TAP	31	192	3
TAP	31	288	4
TAP	32	0	2
TAP	32	0	5
TAP	32	96	2
TAP	32	96	5
TAP	32	192	3
TAP	32	192	4
TAP	32	288	3
TAP	32	288	4
BST	33	0	3
SCL	33	0	3	96	480	0
BST	33	0	4
SCR	33	0	4	96	480	7
STR	35	0	0
SCR	35	0	0	96	480	3
STR	35	0	7
SCL	35	0	7	96	480	4
HLD	37	0	5	192
HLD	37	192	4	192
HLD	38	0	3	192
TAP	38	192	2
HLD	39	0	2	192
HLD	39	192	3	192
HLD	40	0	4	192
TAP	40	192	5
HLD	41	0	6	192
HLD	41	192	5	192
HLD	42	0	4	192
TAP	42	192	3
HLD	43	0	1	192
HLD	43	192	2	192
HLD	44	0	3	192
TAP	44	192	4
STR	45	0	2
SI_	45	0	2	96	96	0
STR	45	0	5
SI_	45	0	5	96	96	7
STR	46	0	1
SI_	46	0	1	96	96	3
STR	46	0	6
SI_	46	0	6	96	96	4
STR	47	0	2
SI_	47	0	2	96	96	0
STR	47	0	5
SI_	47	0	5	96	96	7
STR	48	0	1
SI_	48	0	1	96	96	3
STR	48	0	6
SI_	48	0	6	96	96	4
STR	49	0	3
SI_	49	0	3	96	96	0
STR	49	0	4
SI_	49	0	4	96	96	7
STR	50	0	0
SI_	50	0	0	96	96	3
STR	50	0	7
SI_	50	0	7	96	96	4
STR	51	0	3
SI_	51	0	3	96	96	0
STR	51	0	4
SI_	51	0	4	96	96	7
STR	52	0	0
SI_	52	0	0	96	96	3
STR	52	0	7
SI_	52	0	7	96	96	4
STR	53	0	3
SXR	53	0	3	96	480	0
STR	53	0	4
SXL	53	0	4	96	480	7
TAP	55	0	0
TAP	55	96	0
TAP	55	192	7
TAP	55	288	7
BRK	56	0	2
BRK	56	0	5
TAP	57	0	2
TAP	57	96	2
TAP	57	192	3
TAP	57	288	3
TAP	58	0	2
TAP	58	96	2
TAP	58	192	1
TAP	58	192	4
TAP	59	0	5
TAP	59	96	5
TAP	59	192	4
TAP	59	288	4
TAP	60	0	5
TAP	60	96	5
TAP	60	192	3
TAP	60	192	6
TAP	61	0	1
TAP	61	96	1
TAP	61	192	0
TAP	61	288	0
TAP	62	0	1
TAP	62	96	1
TAP	62	192	2
TAP	62	192	7
TAP	63	0	7
TAP	63	96	6
TAP	63	192	6
TAP	63	192	7
STR	63	288	6
SCL	63	288	6	96	192	3
STR	63	288	7
SCR	63	288	7	96	192	2
TAP	65	0	1
TAP	65	96	0
TAP	65	96	1
TAP	65	192	2
TAP	65	288	2
TAP	65	288	3
TAP	66	0	5
TAP	66	96	4
TAP	66	96	5
TAP	66	192	3
TAP	66	192	6
TAP	67	0	6
TAP	67	96	6
TAP	67	96	7
TAP	67	192	5
TAP	67	288	4
TAP	67	288	5
TAP	68	0	2
TAP	68	96	2
TAP	68	96	3
TAP	68	192	1
TAP	68	192	4
TAP	69	0	2
TAP	69	96	2
TAP	69	96	3
TAP	69	192	1
TAP	69	288	0
TAP	69	288	1
TAP	70	0	6
TAP	70	96	6
TAP	70	96	7
TAP	70	192	0
TAP	70	192	5
TAP	71	0	5
TAP	71	96	4
TAP	71	96	5
TAP	71	192	6
TAP	71	288	6
TAP	71	288	7
TAP	72	0	1
TAP	72	96	0
TAP	72	96	1
STR	72	192	0
SCL	72	192	0	96	480	5
STR	72	192	1
SCR	72	192	1	96	480	4
TAP	74	192	2
TAP	74	288	3
TAP	75	0	4
TAP	75	96	5
TAP	75	192	4
TAP	75	288	3
TAP	76	0	2
TAP	76	0	5
TAP	76	192	0
TAP	76	288	7
STR	77	0	0
SCR	77	0	0	96	288	3
STR	77	0	7
SCL	77	0	7	96	288	4
TAP	78	192	3
TAP	78	192	4
TAP	78	288	2
TAP	78	288	5
TAP	79	0	2
TAP	79	96	2
TAP	79	96	3
TAP	79	192	5
TAP	79	288	4
TAP	79	288	5
TAP	80	0	3
TAP	80	96	4
TAP	80	192	3
TAP	80	192	4
STR	80	288	3
SCL	80	288	3	96	384	0
STR	80	288	4
SCR	80	288	4	96	384	7
TAP	82	192	0
TAP	82	192	7
TAP	82	288	0
TAP	82	288	7
TAP	83	0	1
TAP	83	0	6
TAP	83	96	1
TAP	83	96	6
TAP	83	192	2
TAP	83	192	5
TAP	83	288	2
TAP	83	288	5
TAP	84	0	3
TAP	84	0	4
TAP	84	96	3
TAP	84	96	4
TAP	84	192	2
TAP	84	192	5
TAP	84	288	1
TAP	84	288	6
BRK	85	0	0
BRK	85	0	7
TAP	86	0	0
TAP	86	96	1
TAP	86	192	2
TAP	86	288	3
TAP	87	0	4
TAP	87	0	5
TAP	87	96	3
TAP	87	96	6
TAP	87	192	2
TAP	87	192	7
TAP	88	0	7
TAP	88	96	6
TAP	88	192	5
TAP	88	288	4
TAP	89	0	2
TAP	89	0	3
TAP	89	96	1
TAP	89	96	4
TAP	89	192	0
TAP	89	192	5
TAP	90	0	3
TAP	90	96	2
TAP	90	192	1
TAP	90	288	0
TAP	91	0	6
TAP	91	0	7
TAP	91	96	0
TAP	91	96	5
TAP	91	192	1
TAP	91	192	4
TAP	92	0	4
TAP	92	96	5
TAP	92	192	6
TAP	92	288	7
TAP	93	0	0
TAP	93	0	1
TAP	93	96	2
TAP	93	96	7
TAP	93	192	3
TAP	93	192	6
HLD	94	0	2	192
TAP	94	192	3
HLD	95	0	5	192
TAP	95	192	4
HLD	96	0	1	192
TAP	96	192	2
HLD	97	0	6	192
TAP	97	192	5
HLD	98	0	1	192
TAP	98	192	0
HLD	99	0	6	192
TAP	99	192	7
HLD	100	0	0	192
TAP	100	192	7
HLD	101	0	0	192
HLD	101	0	7	192
BRK	101	288	1
BRK	101	288	6

T_REC_TAP	255
T_REC_BRK	6
T_REC_XTP	0
T_REC_HLD	21
T_REC_XHO	0
T_REC_STR	36
T_REC_BST	2
T_REC_XST	0
T_REC_TTP	0
T_REC_THO	0
T_REC_SLD	38
T_REC_ALL	358
T_NUM_TAP	291
T_NUM_BRK	8
T_NUM_HLD	21
T_NUM_SLD	38
T_NUM_ALL	358
T_JUDGE_TAP	299
T_JUDGE_HLD	84
T_JUDGE_SLD	38
T_JUDGE_ALL	421
TTM_EACHPAIRS	80
TTM_SCR_TAP	145500
TTM_SCR_BRK	20800
TTM_SCR_HLD	21000
TTM_SCR_SLD	57000
TTM_SCR_ALL	244300
TTM_SCR_S	236200
TTM_SCR_SS	243500
TTM_RAT_ACV	10032

