VERSION	0.00.00	1.03.00
FES_MODE	0
BPM_DEF	180.000	180.000	180.000	180.000
MET_DEF	4	4
RESOLUTION	384
CLK_DEF	384
COMPATIBLE_CODE	MA2

BPM	0	0	180.000
MET	0	0	4	4

TAP	9	0	0
TAP	9	192	0
TAP	10	0	0
TAP	10	192	0
TAP	11	0	7
TAP	11	192	7
TAP	12	0	7
TAP	12	192	7
TAP	13	0	0
TAP	13	192	0
TAP	14	0	0
TAP	14	192	0
TAP	15	0	7
TAP	15	192	7
HLD	16	0	0	192
HLD	16	0	7	192
TAP	17	0	0
TAP	17	192	0
TAP	18	0	0
TAP	18	0	1
TAP	18	192	0
TAP	18	192	1
TAP	19	0	7
TAP	19	192	7
TAP	20	0	6
TAP	20	0	7
TAP	20	192	6
TAP	20	192	7
TAP	21	0	0
TAP	21	192	0
TAP	22	0	0
TAP	22	0	1
TAP	22	192	0
TAP	22	192	1
TAP	23	0	7
TAP	23	192	7
TAP	24	0	6
TAP	24	0	7
TAP	24	192	6
TAP	24	192	7
TAP	25	0	0
TAP	25	96	0
TAP	25	192	0
TAP	26	0	1
TAP	26	96	1
TAP	26	192	1
TAP	27	0	2
TAP	27	96	2
TAP	27	192	2
TAP	28	0	3
TAP	28	96	3
TAP	28	192	3
TAP	28	192	4
TAP	29	0	4
TAP	29	96	4
TAP	29	192	4
TAP	30	0	5
TAP	30	96	5
TAP	30	192	5
TAP	31	0	6
TAP	31	96	6
TAP	31	192	6
TAP	32	0	7
TAP	32	96	7
TAP	32	192	0
TAP	32	192	7
HLD	33	0	0	1152
HLD	33	0	7	1152
TAP	37	0	0
TAP	37	192	0
TAP	38	0	1
TAP	38	192	1
TAP	39	0	2
TAP	39	192	2
TAP	40	0	3
TAP	40	96	3
TAP	40	192	3
TAP	41	0	4
TAP	41	192	4
TAP	42	0	5
TAP	42	192	5
TAP	43	0	6
TAP	43	192	6
TAP	44	0	0
TAP	44	0	7
TAP	45	0	7
TAP	45	192	7
TAP	46	0	6
TAP	46	192	6
TAP	47	0	5
TAP	47	192	5
TAP	48	0	4
TAP	48	96	4
TAP	48	192	4
TAP	49	0	3
TAP	49	192	3
TAP	50	0	2
TAP	50	192	2
TAP	51	0	1
TAP	51	192	1
TAP	52	0	0
TAP	52	0	7
STR	53	0	0
SI_	53	0	0	96	288	4
STR	55	0	7
SI_	55	0	7	96	288	3
TAP	57	0	0
TAP	57	96	0
TAP	57	192	0
TAP	58	0	1
TAP	58	96	1
TAP	58	192	1
TAP	59	0	2
TAP	59	96	2
TAP	59	192	2
TAP	60	0	3
TAP	60	96	4
TAP	60	192	3
TAP	61	0	4
TAP	61	96	4
TAP	61	192	4
TAP	62	0	5
TAP	62	96	5
TAP	62	192	5
TAP	63	0	6
TAP	63	96	6
TAP	63	192	6
HLD	64	0	0	192
HLD	64	0	7	192
TAP	65	0	7
TAP	65	96	7
TAP	65	192	7
TAP	66	0	6
TAP	66	96	6
TAP	66	192	6
TAP	67	0	5
TAP	67	96	5
TAP	67	192	5
TAP	68	0	4
TAP	68	96	3
TAP	68	192	4
TAP	69	0	3
TAP	69	96	3
TAP	69	192	3
TAP	70	0	2
TAP	70	96	2
TAP	70	192	2
TAP	71	0	1
TAP	71	96	1
TAP	71	192	1
TAP	72	0	0
TAP	72	0	7
STR	72	192	0
SI_	72	192	0	96	288	3
STR	72	192	7
SI_	72	192	7	96	288	4
HLD	75	0	4	192
TAP	76	0	3
TAP	76	0	4
TAP	76	192	3
TAP	76	288	4
HLD	77	0	3	384
TAP	78	192	3
TAP	78	192	4
TAP	79	0	2
TAP	79	96	3
TAP	79	192	2
TAP	80	0	5
TAP	80	96	4
TAP	80	192	5
HLD	81	0	1	384
HLD	81	0	6	384
TAP	82	192	0
TAP	82	192	7
TAP	83	0	0
TAP	83	0	7
TAP	83	192	1
TAP	83	192	6
TAP	84	0	1
TAP	84	0	6
BRK	84	192	0
BRK	84	192	7
TAP	86	0	0
TAP	86	0	1
TAP	86	192	0
TAP	86	192	1
TAP	87	0	1
TAP	87	96	0
TAP	87	192	1
TAP	88	0	2
TAP	88	0	3
TAP	88	192	2
TAP	88	192	3
TAP	89	0	2
TAP	89	96	3
TAP	89	192	2
TAP	90	0	4
TAP	90	0	5
TAP	90	192	4
TAP	90	192	5
TAP	91	0	5
TAP	91	96	4
TAP	91	192	5
TAP	92	0	6
TAP	92	0	7
TAP	92	192	6
TAP	92	192	7
HLD	93	0	6	192
HLD	93	0	7	192
STR	94	0	6
SI_	94	0	6	96	288	3
STR	96	0	1
SI_	96	0	1	96	288	4
STR	98	0	7
SI_	98	0	7	96	288	3
STR	100	0	0
SI_	100	0	0	96	288	4
TAP	101	288	3
TAP	101	288	4

T_REC_TAP	189
T_REC_BRK	2
T_REC_XTP	0
T_REC_HLD	12
T_REC_XHO	0
T_REC_STR	8
T_REC_BST	0
T_REC_XST	0
T_REC_TTP	0
T_REC_THO	0
T_REC_SLD	8
T_REC_ALL	219
T_NUM_TAP	197
T_NUM_BRK	2
T_NUM_HLD	12
T_NUM_SLD	8
T_NUM_ALL	219
T_JUDGE_TAP	199
T_JUDGE_HLD	100
T_JUDGE_SLD	8
T_JUDGE_ALL	307
TTM_EACHPAIRS	35
TTM_SCR_TAP	98500
TTM_SCR_BRK	5200
TTM_SCR_HLD	12000
TTM_SCR_SLD	12000
TTM_SCR_ALL	127700
TTM_SCR_S	123700
TTM_SCR_SS	127500
TTM_RAT_ACV	10015

