VERSION	0.00.00	1.03.00
FES_MODE	0
BPM_DEF	163.000	163.000	163.000	163.000
MET_DEF	4	4
RESOLUTION	384
CLK_DEF	384
COMPATIBLE_CODE	MA2

BPM	0	0	163.000
MET	0	0	4	4

STR	6	0	0
SCR	6	0	0	96	480	6
STR	6	0	7
SCL	6	0	7	96	480	1
TAP	7	288	0
TAP	7	312	0
TAP	7	336	7
STR	7	360	7
SSR	7	360	7	96	192	3
TAP	9	0	2
TAP	9	24	3
TAP	9	48	2
TAP	9	72	3
TAP	9	96	2
TAP	9	144	5
TAP	9	168	4
TAP	9	192	5
TAP	9	216	4
TAP	9	240	5
TAP	9	288	0
TAP	9	312	7
TAP	9	336	0
TAP	9	360	7
STR	10	0	0
SSL	10	0	0	96	192	4
TAP	11	0	5
TAP	11	48	2
TAP	11	72	3
TAP	11	120	5
TAP	11	144	4
TAP	11	192	2
TAP	11	216	3
TAP	11	264	0
TAP	11	288	6
TAP	11	312	7
TAP	11	336	6
TAP	12	0	2
TAP	12	48	5
TAP	12	72	4
TAP	12	120	2
TAP	12	144	3
TAP	12	192	5
TAP	12	216	4
TAP	12	264	7
TAP	12	288	1
TAP	12	312	0
TAP	12	336	1
TAP	13	0	5
TAP	13	48	2
TAP	13	72	3
TAP	13	120	5
TAP	13	144	4
TAP	13	192	2
TAP	13	216	3
TAP	13	264	0
TAP	13	288	6
TAP	13	312	7
TAP	13	336	6
TAP	14	0	1
TAP	14	0	3
TAP	14	72	4
TAP	14	72	6
TAP	14	144	1
TAP	14	144	6
TAP	14	192	0
TAP	14	216	7
TAP	14	240	1
TAP	14	264	6
TAP	14	288	2
TAP	14	312	5
TAP	14	336	3
TAP	14	360	4
TAP	15	0	2
TAP	15	48	5
TAP	15	72	4
TAP	15	120	2
TAP	15	144	3
TAP	15	192	6
TAP	15	216	4
TAP	15	264	7
TAP	15	288	1
TAP	15	312	0
TAP	15	336	1
TAP	16	0	5
TAP	16	48	2
TAP	16	72	3
TAP	16	120	5
TAP	16	144	4
TAP	16	192	1
TAP	16	216	3
TAP	16	264	0
TAP	16	288	6
TAP	16	312	7
TAP	16	336	6
TAP	17	0	2
TAP	17	48	5
TAP	17	72	4
TAP	17	120	2
TAP	17	144	3
TAP	17	192	6
TAP	17	216	4
TAP	17	264	7
TAP	17	288	1
TAP	17	312	0
TAP	17	336	1
TAP	18	0	3
TAP	18	0	4
TAP	18	24	3
TAP	18	24	4
TAP	18	72	1
TAP	18	120	6
TAP	18	168	2
TAP	18	168	5
TAP	18	216	0
TAP	18	216	7
TAP	18	240	0
TAP	18	240	7
HLD	19	0	2	96
TAP	19	0	5
TAP	19	96	3
TAP	19	144	0
TAP	19	144	6
TAP	19	240	3
HLD	19	240	5	96
TAP	19	336	7
TAP	20	48	0
TAP	20	48	2
TAP	20	144	1
TAP	20	144	4
TAP	20	240	6
TAP	20	240	7
TAP	20	336	2
TAP	20	336	5
STR	21	0	0
SI_	21	0	0	96	48	4
TAP	21	0	7
TAP	21	96	5
TAP	21	144	6
STR	21	192	7
SI_	21	192	7	96	48	3
TAP	21	240	2
TAP	21	288	1
STR	21	336	0
SI_	21	336	0	96	48	4
TAP	22	48	7
TAP	22	96	6
TAP	22	144	2
TAP	22	144	5
TAP	22	240	3
TAP	22	240	4
TAP	22	288	0
TAP	22	288	7
TAP	23	0	2
HLD	23	0	5	96
TAP	23	96	4
TAP	23	144	1
TAP	23	144	7
HLD	23	240	2	96
TAP	23	240	4
TAP	23	336	0
TAP	24	48	5
TAP	24	48	7
TAP	24	144	3
TAP	24	144	6
TAP	24	240	0
TAP	24	240	1
BRK	24	336	2
BRK	24	336	5
TAP	25	96	3
TAP	25	96	4
TAP	25	144	2
TAP	25	192	1
STR	25	240	0
SI_	25	240	0	96	48	4
STR	25	336	7
SI_	25	336	7	96	48	3
STR	26	48	6
SI_	26	48	6	96	48	2
STR	26	144	5
SI_	26	144	5	96	48	1
TAP	26	240	4
TAP	26	288	4
TAP	27	0	0
TAP	27	0	1
TAP	27	48	3
TAP	27	96	0
TAP	27	96	1
TAP	27	144	6
TAP	27	192	0
TAP	27	192	1
TAP	27	240	7
TAP	27	288	6
TAP	27	336	5
TAP	28	48	0
TAP	28	48	4
STR	28	144	2
SXR	28	144	2	96	96	3
STR	28	144	6
SXR	28	144	6	96	96	7
TAP	29	0	2
TAP	29	0	3
TAP	29	48	5
TAP	29	96	2
TAP	29	96	3
TAP	29	144	0
TAP	29	192	2
TAP	29	192	3
TAP	29	240	1
TAP	29	288	0
STR	29	336	7
SCR	29	336	7	96	48	2
TAP	30	48	5
TAP	30	96	4
TAP	30	144	2
STR	30	144	3
SCR	30	144	3	96	48	6
TAP	30	240	0
TAP	30	288	0
TAP	31	0	6
TAP	31	0	7
TAP	31	48	4
TAP	31	96	6
TAP	31	96	7
TAP	31	144	1
TAP	31	192	6
TAP	31	192	7
TAP	31	240	0
TAP	31	240	5
TAP	31	288	1
TAP	31	288	4
TAP	31	336	2
STR	31	336	3
SI_	31	336	3	96	48	7
STR	32	48	4
SI_	32	48	4	96	48	0
STR	32	144	5
SI_	32	144	5	96	48	1
STR	32	240	6
SI_	32	240	6	96	48	2
TAP	32	336	7
STR	33	0	7
SCL	33	0	7	96	96	1
TAP	33	96	0
STR	33	144	0
SI_	33	144	0	96	48	4
TAP	33	240	7
TAP	33	288	7
STR	34	0	0
SCR	34	0	0	96	96	6
TAP	34	96	7
STR	34	144	7
SI_	34	144	7	96	48	3
TAP	34	240	0
TAP	34	288	0
TAP	35	0	0
TAP	35	24	7
TAP	35	48	0
TAP	35	72	7
TAP	35	96	1
TAP	35	120	6
TAP	35	144	1
TAP	35	168	6
TAP	35	192	0
TAP	35	216	7
TAP	35	240	1
TAP	35	264	6
TAP	35	288	2
TAP	35	312	5
TAP	35	336	3
TAP	35	360	4
TAP	36	0	2
TAP	36	24	5
TAP	36	48	1
TAP	36	72	6
TAP	36	96	0
TAP	36	120	7
TAP	36	144	1
TAP	36	168	6
BST	36	192	0
SI_	36	192	0	96	48	3
SI_	36	192	0	96	48	5
BRK	36	288	0
TAP	37	0	1
TAP	37	0	6
TAP	37	96	5
TAP	37	144	4
TAP	37	192	3
TAP	37	240	1
TAP	37	264	0
TAP	37	288	1
TAP	37	336	2
TAP	37	336	7
TAP	38	0	5
TAP	38	24	4
TAP	38	48	5
TAP	38	96	6
TAP	38	120	7
TAP	38	168	2
TAP	38	168	3
TAP	38	216	1
TAP	38	240	0
TAP	38	288	3
TAP	38	288	5
TAP	38	336	0
TAP	39	0	1
TAP	39	0	7
TAP	39	48	2
STR	39	48	6
SI_	39	48	6	96	48	2
TAP	39	144	2
TAP	39	144	6
TAP	39	192	0
TAP	39	240	5
TAP	39	264	4
TAP	39	288	5
TAP	39	336	2
TAP	39	336	7
TAP	40	0	1
TAP	40	24	0
TAP	40	48	1
TAP	40	96	5
TAP	40	120	4
TAP	40	144	5
TAP	40	168	4
TAP	40	216	0
TAP	40	216	1
TAP	40	264	3
TAP	40	288	4
TAP	40	336	2
TAP	40	336	5
TAP	41	0	1
TAP	41	0	6
STR	41	48	0
SF_	41	48	0	96	48	4
TAP	41	48	7
TAP	41	144	0
TAP	41	240	1
TAP	41	240	7
TAP	41	288	5
TAP	41	336	0
TAP	41	336	6
TAP	42	0	2
TAP	42	48	0
TAP	42	48	4
TAP	42	96	6
TAP	42	144	3
TAP	42	144	7
STR	42	192	1
SCR	42	192	1	96	48	4
STR	42	192	5
SCR	42	192	5	96	48	0
TAP	42	288	1
TAP	42	288	5
TAP	43	0	3
TAP	43	0	7
TAP	43	48	5
TAP	43	72	4
TAP	43	96	5
TAP	43	144	1
STR	43	144	6
SCL	43	144	6	96	48	3
TAP	43	240	0
TAP	43	288	1
TAP	43	336	2
TAP	44	0	4
TAP	44	0	5
TAP	44	48	2
TAP	44	48	3
TAP	44	96	0
TAP	44	96	7
TAP	44	144	2
TAP	44	168	3
TAP	44	216	5
TAP	44	240	4
TAP	44	288	0
TAP	44	312	7
TAP	44	336	0
BRK	45	0	1
BRK	45	0	6
TAP	45	96	2
TAP	45	144	3
TAP	45	192	4
TAP	45	240	6
TAP	45	264	7
TAP	45	288	6
TAP	45	336	0
TAP	45	336	5
TAP	46	0	2
TAP	46	24	3
TAP	46	48	2
TAP	46	96	1
TAP	46	120	0
TAP	46	168	4
TAP	46	168	5
TAP	46	216	6
TAP	46	240	7
TAP	46	288	2
TAP	46	288	4
TAP	46	336	7
TAP	47	0	0
TAP	47	0	6
STR	47	48	1
SI_	47	48	1	96	48	5
TAP	47	48	5
TAP	47	144	1
TAP	47	144	5
TAP	47	192	7
TAP	47	240	2
TAP	47	264	3
TAP	47	288	2
TAP	47	336	0
TAP	47	336	5
TAP	48	0	6
TAP	48	24	7
TAP	48	48	6
TAP	48	96	2
TAP	48	120	3
TAP	48	144	2
TAP	48	168	3
TAP	48	216	6
TAP	48	216	7
TAP	48	264	4
TAP	48	288	3
TAP	48	336	2
TAP	48	336	5
TAP	49	0	1
TAP	49	0	6
TAP	49	48	0
STR	49	48	7
SF_	49	48	7	96	48	3
TAP	49	144	7
TAP	49	240	0
TAP	49	240	1
TAP	49	288	6
TAP	49	288	7
TAP	49	336	0
TAP	49	336	4
BST	50	0	2
SI_	50	0	2	96	48	7
BST	50	0	6
SI_	50	0	6	96	48	3
BRK	50	96	2
BRK	50	96	6
BRK	50	192	1
BRK	50	192	5
TAP	50	288	0
TAP	50	288	7
TAP	50	336	1
TAP	50	336	3
TAP	51	0	4
TAP	51	0	6
TAP	51	48	2
TAP	51	72	3
TAP	51	96	2
STR	51	144	0
SCR	51	144	0	96	48	3
TAP	51	144	6
TAP	51	240	7
TAP	51	288	6
TAP	51	336	5
TAP	52	0	1
TAP	52	0	3
TAP	52	72	4
TAP	52	72	6
TAP	52	144	0
TAP	52	144	7
TAP	52	240	2
TAP	52	240	5
TAP	52	288	3
TAP	52	312	4
TAP	52	336	3
TAP	52	360	4
HLD	53	0	2	72
HLD	53	72	3	72
TAP	53	144	4
TAP	53	240	2
TAP	53	240	6
TAP	53	336	1
TAP	53	336	7
HLD	54	0	5	72
HLD	54	72	4	72
TAP	54	144	3
TAP	54	240	1
TAP	54	240	5
TAP	54	336	0
TAP	54	336	6
HLD	55	0	3	72
HLD	55	72	5	72
TAP	55	144	7
TAP	55	240	2
TAP	55	240	4
TAP	55	336	0
TAP	55	336	6
HLD	56	0	4	72
HLD	56	72	2	72
TAP	56	144	0
TAP	56	240	3
TAP	56	240	5
TAP	56	336	1
TAP	56	336	7
TAP	57	0	3
TAP	57	0	4
TAP	57	48	1
TAP	57	72	0
TAP	57	120	3
TAP	57	144	4
TAP	57	192	0
TAP	57	216	7
TAP	57	264	5
TAP	57	288	2
TAP	57	312	3
TAP	57	336	2
TAP	58	0	3
TAP	58	0	4
TAP	58	48	6
TAP	58	72	7
TAP	58	120	4
TAP	58	144	3
TAP	58	192	7
TAP	58	216	0
TAP	58	264	2
TAP	58	288	5
TAP	58	312	4
TAP	58	336	5
TAP	59	0	3
TAP	59	0	4
TAP	59	48	1
TAP	59	72	0
TAP	59	120	6
TAP	59	144	7
TAP	59	192	3
TAP	59	216	4
TAP	59	264	0
TAP	59	288	7
TAP	59	312	0
TAP	59	336	7
TAP	60	0	3
TAP	60	0	4
TAP	60	24	3
TAP	60	24	4
TAP	60	72	4
TAP	60	72	6
TAP	60	120	1
TAP	60	120	3
TAP	60	168	2
TAP	60	168	5
TAP	60	216	0
TAP	60	216	7
TAP	60	240	0
TAP	60	240	7
BRK	61	0	1
BRK	61	0	6
TAP	62	0	6
TAP	62	0	7
TAP	62	48	4
TAP	62	96	6
TAP	62	96	7
TAP	62	144	1
TAP	62	192	6
TAP	62	192	7
TAP	62	240	0
TAP	62	288	1
TAP	62	336	2
TAP	63	48	3
TAP	63	48	7
STR	63	144	1
SXL	63	144	1	96	96	0
STR	63	144	5
SXL	63	144	5	96	96	4
TAP	64	0	4
TAP	64	0	5
TAP	64	48	2
TAP	64	96	4
TAP	64	96	5
TAP	64	144	7
TAP	64	192	4
TAP	64	192	5
TAP	64	240	6
TAP	64	288	7
STR	64	336	0
SCL	64	336	0	96	48	5
TAP	65	0	1
TAP	65	48	2
TAP	65	96	3
STR	65	144	4
SCL	65	144	4	96	48	1
TAP	65	144	5
TAP	65	240	7
TAP	65	288	7
TAP	66	0	0
TAP	66	0	1
TAP	66	48	3
TAP	66	96	0
TAP	66	96	1
TAP	66	144	6
TAP	66	192	0
TAP	66	192	1
TAP	66	240	2
TAP	66	240	7
TAP	66	288	3
TAP	66	288	6
STR	66	336	4
SI_	66	336	4	96	48	0
TAP	66	336	5
STR	67	48	3
SI_	67	48	3	96	48	7
STR	67	144	2
SI_	67	144	2	96	48	6
STR	67	240	1
SI_	67	240	1	96	48	5
TAP	67	336	0
STR	68	0	0
SCR	68	0	0	96	96	6
TAP	68	96	7
STR	68	144	7
SI_	68	144	7	96	48	3
TAP	68	240	0
TAP	68	288	0
STR	69	0	7
SCL	69	0	7	96	96	1
TAP	69	96	0
STR	69	144	0
SI_	69	144	0	96	48	4
TAP	69	240	7
TAP	69	288	7
TAP	70	0	7
TAP	70	24	0
TAP	70	48	7
TAP	70	72	0
TAP	70	96	6
TAP	70	120	1
TAP	70	144	6
TAP	70	168	1
TAP	70	192	7
TAP	70	216	0
TAP	70	240	6
TAP	70	264	1
TAP	70	288	5
TAP	70	312	2
TAP	70	336	4
TAP	70	360	3
TAP	71	0	5
TAP	71	24	2
TAP	71	48	6
TAP	71	72	1
TAP	71	96	7
TAP	71	120	0
TAP	71	144	6
TAP	71	168	1
BST	71	192	7
SI_	71	192	7	96	48	2
SI_	71	192	7	96	48	4
BRK	71	288	7
TAP	72	0	1
TAP	72	0	6
TAP	72	96	3
TAP	72	144	1
TAP	72	144	7
TAP	72	192	4
TAP	72	192	5
TAP	72	240	6
TAP	72	264	7
TAP	72	288	6
TAP	72	336	0
TAP	72	336	5
TAP	73	0	2
TAP	73	24	3
TAP	73	48	2
TAP	73	96	1
TAP	73	120	0
TAP	73	168	4
TAP	73	168	5
TAP	73	216	6
TAP	73	240	7
TAP	73	288	2
TAP	73	288	5
TAP	73	336	6
TAP	73	336	7
TAP	74	0	0
TAP	74	0	5
TAP	74	48	1
STR	74	48	4
SI_	74	48	4	96	48	0
TAP	74	144	0
TAP	74	144	4
TAP	74	192	1
TAP	74	240	2
TAP	74	264	3
TAP	74	288	2
TAP	74	336	0
TAP	74	336	5
TAP	75	0	6
TAP	75	24	7
TAP	75	48	6
TAP	75	96	4
TAP	75	120	3
TAP	75	144	4
TAP	75	168	3
TAP	75	216	0
TAP	75	216	2
TAP	75	264	6
TAP	75	288	7
TAP	75	336	0
TAP	75	336	5
TAP	76	0	1
TAP	76	0	4
TAP	76	48	2
STR	76	48	3
SF_	76	48	3	96	48	7
TAP	76	144	3
TAP	76	240	0
TAP	76	240	1
TAP	76	288	3
TAP	76	288	4
TAP	76	336	6
TAP	76	336	7
TAP	77	0	2
TAP	77	0	5
TAP	77	48	0
TAP	77	48	3
TAP	77	96	2
TAP	77	96	5
TAP	77	144	4
TAP	77	144	7
STR	77	192	2
SCL	77	192	2	96	48	7
STR	77	192	6
SCL	77	192	6	96	48	3
TAP	77	288	2
TAP	77	288	6
TAP	78	0	0
TAP	78	0	4
TAP	78	48	2
TAP	78	72	3
TAP	78	96	2
STR	78	144	1
SCR	78	144	1	96	48	4
TAP	78	144	6
TAP	78	240	7
TAP	78	288	6
TAP	78	336	5
TAP	79	0	2
TAP	79	0	3
TAP	79	48	4
TAP	79	48	5
TAP	79	96	0
TAP	79	96	7
TAP	79	144	5
TAP	79	168	4
TAP	79	216	2
TAP	79	240	3
TAP	79	288	0
TAP	79	312	7
TAP	79	336	0
BRK	80	0	1
BRK	80	0	6
TAP	80	96	4
TAP	80	144	0
TAP	80	144	6
TAP	80	192	2
TAP	80	192	3
TAP	80	240	1
TAP	80	264	0
TAP	80	288	1
TAP	80	336	2
TAP	80	336	7
TAP	81	0	5
TAP	81	24	4
TAP	81	48	5
TAP	81	96	6
TAP	81	120	7
TAP	81	168	2
TAP	81	168	3
TAP	81	216	1
TAP	81	240	0
TAP	81	288	2
TAP	81	288	5
TAP	81	336	0
TAP	81	336	1
TAP	82	0	2
TAP	82	0	7
STR	82	48	3
SI_	82	48	3	96	48	7
TAP	82	48	6
TAP	82	144	3
TAP	82	144	7
TAP	82	192	6
TAP	82	240	5
TAP	82	264	4
TAP	82	288	5
TAP	82	336	2
TAP	82	336	7
TAP	83	0	1
TAP	83	24	0
TAP	83	48	1
TAP	83	96	3
TAP	83	120	4
TAP	83	144	3
TAP	83	168	4
TAP	83	216	5
TAP	83	216	7
TAP	83	264	1
TAP	83	288	0
TAP	83	336	2
TAP	83	336	7
TAP	84	0	3
TAP	84	0	6
STR	84	48	4
SF_	84	48	4	96	48	0
TAP	84	48	5
TAP	84	144	4
TAP	84	240	6
TAP	84	240	7
TAP	84	288	0
TAP	84	288	1
TAP	84	336	3
TAP	84	336	7
BST	85	0	1
SI_	85	0	1	96	48	4
BST	85	0	5
SI_	85	0	5	96	48	0
BRK	85	96	1
BRK	85	96	5
BRK	85	192	2
BRK	85	192	6
TAP	85	288	0
TAP	85	288	7
TAP	85	336	4
TAP	85	336	6
TAP	86	0	1
TAP	86	0	3
TAP	86	48	5
TAP	86	72	4
TAP	86	96	5
TAP	86	144	1
STR	86	144	7
SCL	86	144	7	96	48	4
TAP	86	240	0
TAP	86	288	1
TAP	86	336	2
TAP	87	0	5
TAP	87	0	7
TAP	87	72	0
TAP	87	72	2
TAP	87	144	3
TAP	87	144	4
TAP	87	240	1
TAP	87	240	6
TAP	87	288	0
TAP	87	312	7
TAP	87	336	0
BRK	88	0	2
BRK	88	0	5

T_REC_TAP	705
T_REC_BRK	20
T_REC_XTP	0
T_REC_HLD	12
T_REC_XHO	0
T_REC_STR	51
T_REC_BST	6
T_REC_XST	0
T_REC_TTP	0
T_REC_THO	0
T_REC_SLD	59
T_REC_ALL	853
T_NUM_TAP	756
T_NUM_BRK	26
T_NUM_HLD	12
T_NUM_SLD	59
T_NUM_ALL	853
T_JUDGE_TAP	782
T_JUDGE_HLD	24
T_JUDGE_SLD	59
T_JUDGE_ALL	865
TTM_EACHPAIRS	185
TTM_SCR_TAP	378000
TTM_SCR_BRK	67600
TTM_SCR_HLD	12000
TTM_SCR_SLD	88500
TTM_SCR_ALL	546100
TTM_SCR_S	527200
TTM_SCR_SS	543500
TTM_RAT_ACV	10047

