VERSION	0.00.00	1.03.00
FES_MODE	0
BPM_DEF	163.000	163.000	163.000	163.000
MET_DEF	4	4
RESOLUTION	384
CLK_DEF	384
COMPATIBLE_CODE	MA2

BPM	0	0	163.000
MET	0	0	4	4

STR	2	0	3
SCL	2	0	3	96	1056	4
HLD	6	0	3	288
TAP	6	0	4
TAP	6	96	4
TAP	6	192	2
TAP	6	288	2
TAP	7	0	3
HLD	7	0	4	288
TAP	7	96	3
TAP	7	192	5
TAP	7	288	5
HLD	8	0	3	288
TAP	8	0	4
TAP	8	96	4
TAP	8	192	2
TAP	8	288	2
TAP	9	0	1
TAP	9	48	3
TAP	9	96	2
TAP	9	144	6
TAP	9	192	4
TAP	9	240	5
TAP	9	288	2
TAP	9	336	4
BST	10	0	3
SLL	10	0	3	96	192	7
SLR	10	0	3	96	192	7
HLD	11	0	1	96
TAP	11	96	0
HLD	11	192	6	96
TAP	11	288	7
HLD	12	0	1	96
TAP	12	96	2
TAP	12	192	5
TAP	12	240	4
TAP	12	288	5
HLD	13	0	2	96
TAP	13	96	0
HLD	13	192	5	96
TAP	13	288	7
HLD	14	0	1	96
HLD	14	96	3	96
HLD	14	192	4	96
TAP	14	288	6
HLD	15	0	6	96
TAP	15	96	7
HLD	15	192	1	96
TAP	15	288	0
HLD	16	0	6	96
TAP	16	96	5
TAP	16	192	2
TAP	16	240	3
TAP	16	288	2
HLD	17	0	5	96
TAP	17	96	7
HLD	17	192	2	96
TAP	17	288	0
TAP	18	0	2
TAP	18	0	4
TAP	18	96	3
TAP	18	96	5
TAP	18	192	1
TAP	18	192	4
TAP	18	288	3
TAP	18	288	6
TAP	19	0	4
TAP	19	0	5
TAP	19	96	2
TAP	19	96	7
TAP	19	192	2
TAP	19	192	3
TAP	19	288	0
TAP	19	288	5
STR	20	0	6
SCL	20	0	6	96	48	3
STR	20	192	2
SCL	20	192	2	96	48	7
TAP	21	0	5
TAP	21	96	2
TAP	21	96	7
TAP	21	192	2
TAP	21	192	3
TAP	21	288	0
TAP	21	288	5
TAP	22	0	4
TAP	22	0	5
STR	22	96	0
SI_	22	96	0	96	48	5
STR	22	96	1
SI_	22	96	1	96	48	4
TAP	23	0	6
TAP	23	0	7
TAP	23	96	1
TAP	23	96	4
TAP	23	192	0
TAP	23	192	1
TAP	23	288	3
TAP	23	288	6
STR	24	0	5
SCR	24	0	5	96	48	0
STR	24	192	1
SCR	24	192	1	96	48	4
TAP	25	0	6
TAP	25	96	1
TAP	25	96	4
TAP	25	192	0
TAP	25	240	0
TAP	25	336	0
TAP	25	336	1
TAP	26	48	4
TAP	26	48	5
TAP	26	144	2
TAP	26	144	3
BRK	26	240	6
BRK	26	240	7
TAP	27	0	2
TAP	27	48	3
TAP	27	96	2
TAP	27	96	4
TAP	27	192	5
TAP	27	240	4
TAP	27	288	5
HLD	27	336	4	96
HLD	28	48	5	96
STR	28	144	6
SCR	28	144	6	96	48	1
TAP	29	0	6
TAP	29	48	7
TAP	29	96	0
TAP	29	96	6
TAP	29	192	1
TAP	29	240	0
TAP	29	288	1
TAP	29	288	7
TAP	30	0	2
TAP	30	48	3
TAP	30	96	2
HLD	30	144	3	144
TAP	30	288	4
TAP	31	0	5
TAP	31	48	4
TAP	31	96	3
TAP	31	96	5
TAP	31	192	2
TAP	31	240	3
TAP	31	288	2
HLD	31	336	3	96
HLD	32	48	4	96
HLD	32	144	5	96
HLD	32	240	3	96
TAP	32	336	2
STR	33	0	2
SCL	33	0	2	96	96	5
TAP	33	288	6
STR	34	0	6
SI_	34	0	6	96	48	3
TAP	34	96	7
STR	34	144	7
SI_	34	144	7	96	48	2
STR	35	0	3
SXL	35	0	3	96	384	7
SXR	35	0	3	96	384	7
TAP	36	192	0
TAP	36	192	7
BRK	36	288	1
BRK	36	288	6
TAP	37	0	0
STR	37	0	1
SCR	37	0	1	96	48	4
STR	37	192	6
SCL	37	192	6	96	48	3
TAP	37	192	7
STR	38	0	1
SXR	38	0	1	96	144	4
TAP	38	288	6
TAP	39	0	4
STR	39	0	5
SCR	39	0	5	96	48	0
STR	39	192	2
SCL	39	192	2	96	48	7
TAP	39	192	3
STR	40	0	4
SF_	40	0	4	96	96	0
TAP	40	288	7
STR	41	0	6
SI_	41	0	6	96	48	3
TAP	41	96	0
STR	41	192	1
SI_	41	192	1	96	48	4
TAP	41	288	7
TAP	42	0	6
TAP	42	48	7
TAP	42	96	6
TAP	42	144	5
TAP	42	192	4
TAP	42	288	2
TAP	42	288	7
HLD	43	0	2	96
HLD	43	96	5	96
HLD	43	192	4	96
HLD	43	288	3	96
STR	44	0	2
SUR	44	0	2	96	192	5
STR	45	0	6
SI_	45	0	6	96	48	3
STR	45	0	7
SI_	45	0	7	96	48	3
STR	45	192	0
SI_	45	192	0	96	48	4
STR	45	192	1
SI_	45	192	1	96	48	4
STR	46	0	6
SXL	46	0	6	96	144	3
TAP	46	288	1
STR	47	0	2
SI_	47	0	2	96	48	7
STR	47	0	3
SI_	47	0	3	96	48	7
STR	47	192	4
SI_	47	192	4	96	48	0
STR	47	192	5
SI_	47	192	5	96	48	0
STR	48	0	3
SF_	48	0	3	96	96	7
TAP	48	288	0
STR	49	0	1
SI_	49	0	1	96	48	5
TAP	49	96	7
STR	49	192	6
SI_	49	192	6	96	48	2
TAP	49	288	0
TAP	50	0	1
TAP	50	48	0
TAP	50	96	1
TAP	50	144	2
TAP	50	192	3
TAP	50	288	0
TAP	50	288	5
STR	51	0	2
SI_	51	0	2	96	48	7
TAP	51	96	4
STR	51	192	5
SI_	51	192	5	96	48	0
TAP	51	288	3
HLD	52	0	3	72
HLD	52	0	4	72
BST	52	144	3
SI_	52	144	3	96	48	0
BST	52	144	4
SI_	52	144	4	96	48	7
HLD	53	0	1	288
TAP	53	96	2
TAP	53	288	2
HLD	54	0	4	288
TAP	54	96	3
TAP	54	288	3
HLD	55	0	0	288
TAP	55	96	7
TAP	55	288	7
HLD	56	0	6	288
TAP	56	96	5
TAP	56	288	5
HLD	57	0	1	96
TAP	57	96	0
TAP	57	192	2
TAP	57	240	3
TAP	57	288	2
HLD	58	0	6	96
TAP	58	96	7
TAP	58	192	5
TAP	58	240	4
TAP	58	288	5
TAP	59	0	0
TAP	59	0	7
TAP	59	96	1
TAP	59	96	6
TAP	59	192	3
TAP	59	240	4
TAP	59	288	3
TAP	60	0	2
TAP	60	0	6
TAP	60	96	0
TAP	60	96	4
TAP	60	192	3
TAP	60	240	4
TAP	60	288	2
TAP	60	288	5
STR	61	0	0
SXL	61	0	0	96	192	3
STR	61	0	7
SXR	61	0	7	96	192	4
STR	62	0	0
SI_	62	0	0	96	48	4
TAP	62	96	7
HLD	62	192	6	96
TAP	62	288	5
TAP	62	336	5
TAP	63	48	6
TAP	63	48	7
TAP	63	144	2
TAP	63	144	3
TAP	63	240	4
TAP	63	240	5
TAP	63	336	0
TAP	63	336	1
HLD	64	0	1	96
TAP	64	96	2
HLD	64	192	7	96
TAP	64	288	5
TAP	65	0	2
TAP	65	48	3
TAP	65	96	2
HLD	65	144	3	144
TAP	65	288	4
STR	66	0	7
SI_	66	0	7	96	48	3
TAP	66	96	0
HLD	66	192	1	96
TAP	66	288	2
TAP	66	336	2
TAP	67	48	0
TAP	67	48	1
TAP	67	144	4
TAP	67	144	5
TAP	67	240	2
TAP	67	240	3
TAP	67	336	6
TAP	67	336	7
STR	68	0	6
SV_	68	0	6	96	96	4
STR	68	0	7
SLR	68	0	7	96	96	4
TAP	68	288	2
TAP	68	288	7
STR	69	0	0
SLL	69	0	0	96	96	3
STR	69	0	1
SV_	69	0	1	96	96	3
TAP	69	288	0
TAP	69	288	5
STR	70	0	4
SXL	70	0	4	96	384	0
SXR	70	0	4	96	384	0
TAP	71	192	0
TAP	71	192	7
BRK	71	288	1
BRK	71	288	6
TAP	72	0	0
TAP	72	0	1
TAP	72	48	0
TAP	72	48	1
TAP	72	96	2
TAP	72	96	7
TAP	72	192	6
TAP	72	192	7
TAP	72	240	6
TAP	72	240	7
TAP	72	288	0
TAP	72	288	5
STR	73	0	0
SXR	73	0	0	96	192	5
STR	73	0	1
SXL	73	0	1	96	192	4
TAP	74	0	6
TAP	74	0	7
TAP	74	48	6
TAP	74	48	7
TAP	74	96	0
TAP	74	96	5
TAP	74	192	0
TAP	74	192	1
TAP	74	240	0
TAP	74	240	1
TAP	74	288	2
TAP	74	288	7
STR	75	0	6
SXR	75	0	6	96	192	3
STR	75	0	7
SXL	75	0	7	96	192	2
TAP	76	0	2
TAP	76	48	3
TAP	76	96	1
TAP	76	96	4
TAP	76	192	5
TAP	76	240	4
TAP	76	288	3
TAP	76	288	6
TAP	77	0	0
TAP	77	0	1
TAP	77	48	0
TAP	77	48	1
TAP	77	96	2
TAP	77	96	7
TAP	77	144	2
TAP	77	144	7
HLD	77	192	3	96
HLD	77	192	6	96
STR	78	0	0
SI_	78	0	0	96	48	3
STR	78	0	4
SI_	78	0	4	96	48	7
STR	78	192	3
SI_	78	192	3	96	48	0
STR	78	192	7
SI_	78	192	7	96	48	4
STR	79	0	0
SCR	79	0	0	96	96	3
STR	79	0	4
SCR	79	0	4	96	96	7
TAP	79	288	1
TAP	79	288	6
STR	80	0	0
SI_	80	0	0	96	48	4
STR	80	96	7
SI_	80	96	7	96	48	3
STR	80	192	1
SI_	80	192	1	96	48	5
STR	80	288	6
SI_	80	288	6	96	48	2
STR	81	0	0
SF_	81	0	0	96	96	4
TAP	81	288	2
TAP	81	288	6
STR	82	0	7
SI_	82	0	7	96	48	3
STR	82	96	0
SI_	82	96	0	96	48	4
STR	82	192	6
SI_	82	192	6	96	48	2
STR	82	288	1
SI_	82	288	1	96	48	5
STR	83	0	7
SF_	83	0	7	96	96	3
TAP	83	288	1
TAP	83	288	5
STR	84	0	0
SI_	84	0	0	96	48	4
STR	84	0	6
SI_	84	0	6	96	48	3
STR	84	192	1
SI_	84	192	1	96	48	4
STR	84	192	7
SI_	84	192	7	96	48	3
TAP	85	0	6
TAP	85	0	7
TAP	85	48	6
TAP	85	48	7
TAP	85	96	0
TAP	85	96	5
TAP	85	144	0
TAP	85	144	5
HLD	85	192	1	96
HLD	85	192	4	96
STR	86	0	2
SI_	86	0	2	96	48	6
STR	86	0	3
SI_	86	0	3	96	48	7
STR	86	192	4
SI_	86	192	4	96	48	0
STR	86	192	5
SI_	86	192	5	96	48	1
STR	87	0	3
SF_	87	0	3	96	96	7
TAP	87	288	0
TAP	88	0	3
BST	88	0	7
SCL	88	0	7	96	1440	7

T_REC_TAP	261
T_REC_BRK	6
T_REC_XTP	0
T_REC_HLD	44
T_REC_XHO	0
T_REC_STR	73
T_REC_BST	4
T_REC_XST	0
T_REC_TTP	0
T_REC_THO	0
T_REC_SLD	80
T_REC_ALL	468
T_NUM_TAP	334
T_NUM_BRK	10
T_NUM_HLD	44
T_NUM_SLD	80
T_NUM_ALL	468
T_JUDGE_TAP	344
T_JUDGE_HLD	118
T_JUDGE_SLD	80
T_JUDGE_ALL	542
TTM_EACHPAIRS	100
TTM_SCR_TAP	167000
TTM_SCR_BRK	26000
TTM_SCR_HLD	44000
TTM_SCR_SLD	120000
TTM_SCR_ALL	357000
TTM_SCR_S	345350
TTM_SCR_SS	356000
TTM_RAT_ACV	10028

