VERSION	0.00.00	1.03.00
FES_MODE	0
BPM_DEF	163.000	163.000	163.000	163.000
MET_DEF	4	4
RESOLUTION	384
CLK_DEF	384
COMPATIBLE_CODE	MA2

BPM	0	0	163.000
MET	0	0	4	4

STR	2	0	1
SUR	2	0	1	96	480	6
STR	4	0	6
SUL	4	0	6	96	480	1
TAP	6	0	2
TAP	6	96	3
TAP	6	192	2
TAP	7	0	5
TAP	7	96	4
TAP	7	192	5
TAP	8	0	2
TAP	8	96	2
TAP	8	192	5
TAP	8	288	5
TAP	9	0	3
TAP	9	96	4
TAP	9	192	3
TAP	9	192	4
BRK	10	0	1
BRK	10	0	6
TAP	11	0	0
TAP	11	96	0
TAP	11	192	1
TAP	11	288	1
TAP	12	0	2
TAP	12	96	2
TAP	12	192	2
TAP	12	192	3
TAP	13	0	7
TAP	13	96	7
TAP	13	192	6
TAP	13	288	6
TAP	14	0	5
TAP	14	96	5
TAP	14	192	4
TAP	14	192	5
TAP	15	0	3
TAP	15	96	3
TAP	15	192	2
TAP	15	288	2
TAP	16	0	1
TAP	16	96	1
TAP	16	192	0
TAP	16	192	1
TAP	17	0	4
TAP	17	96	4
TAP	17	192	5
TAP	17	288	5
TAP	18	0	6
TAP	18	96	6
TAP	18	192	6
TAP	18	192	7
TAP	19	0	4
TAP	19	96	4
TAP	19	192	3
TAP	19	192	5
TAP	20	0	3
TAP	20	96	3
TAP	20	192	2
TAP	20	192	4
TAP	21	0	7
TAP	21	96	7
TAP	21	192	0
TAP	21	192	6
TAP	22	0	0
TAP	22	96	0
TAP	22	192	1
TAP	22	192	7
TAP	23	0	2
TAP	23	96	2
TAP	23	192	1
TAP	23	192	3
TAP	24	0	5
TAP	24	96	5
TAP	24	192	4
TAP	24	192	6
TAP	25	0	1
TAP	25	96	1
TAP	25	192	0
TAP	25	192	2
TAP	26	0	6
TAP	26	96	6
TAP	26	192	5
TAP	26	192	7
HLD	27	0	2	192
TAP	27	192	3
HLD	28	0	5	192
TAP	28	192	4
HLD	29	0	1	192
TAP	29	192	2
HLD	30	0	6	192
TAP	30	192	5
HLD	31	0	1	192
TAP	31	192	0
HLD	32	0	6	192
TAP	32	192	7
HLD	33	0	2	192
TAP	33	192	1
HLD	34	0	5	192
TAP	34	192	6
STR	35	0	3
SXR	35	0	3	96	480	0
STR	35	0	4
SXL	35	0	4	96	480	7
TAP	37	0	0
TAP	37	96	1
TAP	37	192	2
TAP	37	288	2
TAP	37	288	3
TAP	38	0	7
TAP	38	96	6
TAP	38	192	4
TAP	38	192	5
TAP	39	0	7
TAP	39	96	6
TAP	39	192	5
TAP	39	288	4
TAP	39	288	5
TAP	40	0	0
TAP	40	96	1
TAP	40	192	2
TAP	40	192	3
TAP	41	0	4
TAP	41	96	5
TAP	41	192	6
TAP	41	288	6
TAP	41	288	7
TAP	42	0	3
TAP	42	96	2
TAP	42	192	0
TAP	42	192	1
TAP	43	0	3
TAP	43	96	2
TAP	43	192	1
TAP	43	288	0
TAP	43	288	1
TAP	44	0	4
TAP	44	96	5
TAP	44	192	6
TAP	44	192	7
TAP	45	0	6
TAP	45	96	5
TAP	45	192	4
TAP	45	288	3
TAP	45	288	4
TAP	46	0	1
TAP	46	96	2
TAP	46	192	3
TAP	46	192	4
TAP	47	0	1
TAP	47	96	2
TAP	47	192	3
TAP	47	288	3
TAP	47	288	4
TAP	48	0	6
TAP	48	96	5
TAP	48	192	3
TAP	48	192	4
TAP	49	0	2
TAP	49	96	1
TAP	49	192	0
TAP	49	288	0
TAP	49	288	7
TAP	50	0	5
TAP	50	96	6
TAP	50	192	0
TAP	50	192	7
TAP	51	0	6
TAP	51	96	7
TAP	51	192	1
TAP	51	288	0
STR	52	0	0
SI_	52	0	0	96	192	3
STR	52	0	7
SI_	52	0	7	96	192	4
HLD	53	0	2	192
HLD	53	192	3	192
HLD	54	0	4	192
TAP	54	192	5
HLD	55	0	5	192
HLD	55	192	4	192
HLD	56	0	3	192
TAP	56	192	2
TAP	57	0	0
TAP	57	96	1
TAP	57	192	2
TAP	57	288	3
STR	58	0	4
SI_	58	0	4	96	192	1
STR	58	0	5
SI_	58	0	5	96	192	0
TAP	59	0	7
TAP	59	96	6
TAP	59	192	5
TAP	59	288	4
STR	60	0	2
SI_	60	0	2	96	192	7
STR	60	0	3
SI_	60	0	3	96	192	6
BRK	61	0	0
BRK	61	0	5
TAP	62	0	3
TAP	62	96	3
TAP	62	192	2
TAP	62	288	2
TAP	63	0	0
TAP	63	0	1
TAP	63	96	0
TAP	63	96	1
TAP	63	192	2
TAP	63	192	7
TAP	64	0	4
TAP	64	96	4
TAP	64	192	5
TAP	64	288	5
TAP	65	0	6
TAP	65	0	7
TAP	65	96	6
TAP	65	96	7
TAP	65	192	0
TAP	65	192	5
TAP	66	0	0
TAP	66	96	0
TAP	66	192	1
TAP	66	288	1
TAP	67	0	2
TAP	67	0	3
TAP	67	96	2
TAP	67	96	3
TAP	67	192	1
TAP	67	192	4
TAP	68	0	7
TAP	68	96	7
TAP	68	192	6
TAP	68	288	6
TAP	69	0	4
TAP	69	0	5
TAP	69	96	4
TAP	69	96	5
TAP	69	192	3
TAP	69	192	6
STR	70	0	0
SI_	70	0	0	96	288	3
STR	70	0	7
SI_	70	0	7	96	288	4
TAP	71	192	3
TAP	71	192	4
BRK	71	288	1
BRK	71	288	6
TAP	72	0	0
TAP	72	96	1
TAP	72	192	2
TAP	72	288	3
TAP	73	0	4
TAP	73	0	5
TAP	73	96	4
TAP	73	96	5
TAP	73	192	3
TAP	73	192	6
TAP	74	0	7
TAP	74	96	6
TAP	74	192	5
TAP	74	288	4
TAP	75	0	2
TAP	75	0	3
TAP	75	96	2
TAP	75	96	3
TAP	75	192	1
TAP	75	192	4
TAP	76	0	3
TAP	76	96	2
TAP	76	192	1
TAP	76	288	0
TAP	77	0	6
TAP	77	0	7
TAP	77	96	6
TAP	77	96	7
TAP	77	192	0
TAP	77	192	5
TAP	78	0	4
TAP	78	96	5
TAP	78	192	6
TAP	78	288	7
TAP	79	0	0
TAP	79	0	1
TAP	79	96	0
TAP	79	96	1
TAP	79	192	2
TAP	79	192	7
TAP	80	0	0
TAP	80	96	1
TAP	80	192	2
TAP	80	288	3
TAP	81	0	4
TAP	81	0	5
TAP	81	96	3
TAP	81	96	6
TAP	81	192	2
TAP	81	192	7
TAP	81	288	0
TAP	81	288	1
TAP	82	0	7
TAP	82	96	6
TAP	82	192	5
TAP	82	288	4
TAP	83	0	2
TAP	83	0	3
TAP	83	96	1
TAP	83	96	4
TAP	83	192	0
TAP	83	192	5
TAP	83	288	6
TAP	83	288	7
TAP	84	0	4
TAP	84	96	5
TAP	84	192	6
TAP	84	288	7
TAP	85	0	0
TAP	85	0	1
TAP	85	96	2
TAP	85	96	7
TAP	85	192	3
TAP	85	192	6
TAP	85	288	4
TAP	85	288	5
TAP	86	0	2
TAP	86	0	3
TAP	86	96	2
TAP	86	96	3
TAP	86	192	4
TAP	86	192	5
TAP	86	288	4
TAP	86	288	5
STR	87	0	3
SI_	87	0	3	96	192	0
STR	87	0	4
SI_	87	0	4	96	192	7
BRK	88	0	1
BRK	88	0	6

T_REC_TAP	289
T_REC_BRK	8
T_REC_XTP	0
T_REC_HLD	14
T_REC_XHO	0
T_REC_STR	14
T_REC_BST	0
T_REC_XST	0
T_REC_TTP	0
T_REC_THO	0
T_REC_SLD	14
T_REC_ALL	339
T_NUM_TAP	303
T_NUM_BRK	8
T_NUM_HLD	14
T_NUM_SLD	14
T_NUM_ALL	339
T_JUDGE_TAP	311
T_JUDGE_HLD	56
T_JUDGE_SLD	14
T_JUDGE_ALL	381
TTM_EACHPAIRS	78
TTM_SCR_TAP	151500
TTM_SCR_BRK	20800
TTM_SCR_HLD	14000
TTM_SCR_SLD	21000
TTM_SCR_ALL	207300
TTM_SCR_S	200350
TTM_SCR_SS	206500
TTM_RAT_ACV	10038

