VERSION	0.00.00	1.03.00
FES_MODE	0
BPM_DEF	163.000	163.000	163.000	163.000
MET_DEF	4	4
RESOLUTION	384
CLK_DEF	384
COMPATIBLE_CODE	MA2

BPM	0	0	163.000
MET	0	0	4	4

TAP	6	0	3
TAP	6	192	3
TAP	7	0	3
TAP	7	192	3
TAP	8	0	4
TAP	8	192	4
TAP	9	0	4
TAP	9	192	4
BRK	10	0	3
BRK	10	0	4
TAP	11	0	2
TAP	11	96	2
TAP	11	192	2
TAP	12	0	1
TAP	12	96	1
TAP	12	192	1
TAP	13	0	0
TAP	13	96	0
TAP	13	192	0
TAP	14	0	7
TAP	14	96	0
TAP	14	192	7
TAP	15	0	6
TAP	15	96	6
TAP	15	192	6
TAP	16	0	5
TAP	16	96	5
TAP	16	192	5
TAP	17	0	4
TAP	17	96	4
TAP	17	192	4
TAP	18	0	3
TAP	18	96	4
BRK	18	192	3
HLD	19	0	4	192
HLD	19	0	5	192
TAP	20	0	5
TAP	20	96	4
TAP	20	192	5
HLD	21	0	2	192
HLD	21	0	3	192
TAP	22	0	2
TAP	22	96	3
TAP	22	192	2
HLD	23	0	0	192
HLD	23	0	1	192
TAP	24	0	1
TAP	24	96	0
TAP	24	192	1
HLD	25	0	6	192
HLD	25	0	7	192
TAP	26	0	6
TAP	26	96	7
BRK	26	192	6
TAP	27	0	0
TAP	27	96	0
TAP	27	192	1
TAP	27	288	1
TAP	28	0	2
TAP	28	96	2
TAP	28	192	3
TAP	28	192	4
TAP	29	0	4
TAP	29	96	4
TAP	29	192	5
TAP	29	288	5
TAP	30	0	6
TAP	30	96	6
TAP	30	192	0
TAP	30	192	7
TAP	31	0	7
TAP	31	96	7
TAP	31	192	6
TAP	31	288	6
TAP	32	0	5
TAP	32	96	5
TAP	32	192	3
TAP	32	192	4
TAP	33	0	3
TAP	33	0	4
TAP	33	192	3
TAP	33	192	4
TAP	34	0	2
TAP	34	0	5
TAP	34	192	2
TAP	34	192	5
HLD	35	0	1	384
HLD	35	0	6	384
TAP	36	192	0
TAP	36	192	7
TAP	37	0	1
TAP	37	96	0
TAP	37	192	1
TAP	37	288	0
HLD	38	0	1	192
TAP	39	0	6
TAP	39	96	7
TAP	39	192	6
TAP	39	288	7
HLD	40	0	6	192
TAP	41	0	5
TAP	41	96	5
TAP	41	192	4
TAP	41	288	4
TAP	42	0	3
TAP	42	96	3
TAP	42	192	2
TAP	42	192	3
TAP	43	0	2
TAP	43	96	2
TAP	43	192	3
TAP	43	288	3
HLD	44	0	4	192
HLD	44	0	5	192
TAP	45	0	6
TAP	45	96	7
TAP	45	192	6
TAP	45	288	7
HLD	46	0	6	192
TAP	47	0	1
TAP	47	96	0
TAP	47	192	1
TAP	47	288	0
HLD	48	0	1	192
TAP	49	0	2
TAP	49	96	2
TAP	49	192	3
TAP	49	288	3
TAP	50	0	4
TAP	50	96	4
TAP	50	192	4
TAP	50	192	5
TAP	51	0	3
TAP	51	96	3
TAP	51	192	2
TAP	51	288	2
HLD	52	0	1	192
STR	53	0	0
SI_	53	0	0	96	288	4
STR	55	0	7
SI_	55	0	7	96	288	3
STR	57	0	1
SI_	57	0	1	96	288	4
STR	59	0	6
SI_	59	0	6	96	288	3
TAP	61	0	3
TAP	61	0	4
TAP	62	0	3
TAP	62	96	3
TAP	62	192	2
TAP	62	288	2
TAP	63	0	1
TAP	63	96	1
TAP	63	192	0
TAP	63	192	7
TAP	64	0	7
TAP	64	96	7
TAP	64	192	6
TAP	64	288	6
TAP	65	0	5
TAP	65	96	5
TAP	65	192	3
TAP	65	192	4
TAP	66	0	4
TAP	66	96	4
TAP	66	192	5
TAP	66	288	5
TAP	67	0	6
TAP	67	96	6
TAP	67	192	0
TAP	67	192	7
TAP	68	0	0
TAP	68	0	7
TAP	68	192	0
TAP	68	192	7
TAP	69	0	1
TAP	69	0	6
TAP	69	192	1
TAP	69	192	6
HLD	70	0	2	384
HLD	70	0	5	384
TAP	71	192	3
TAP	71	192	4
TAP	72	0	5
TAP	72	96	5
TAP	72	192	4
TAP	72	288	4
HLD	73	0	3	192
HLD	73	0	5	192
TAP	74	0	2
TAP	74	96	2
TAP	74	192	3
TAP	74	288	3
HLD	75	0	2	192
HLD	75	0	4	192
TAP	76	0	1
TAP	76	96	1
TAP	76	192	0
TAP	76	288	0
TAP	77	0	7
TAP	77	96	7
TAP	77	192	6
TAP	77	192	7
TAP	78	0	7
TAP	78	96	7
TAP	78	192	0
TAP	78	288	0
HLD	79	0	1	192
TAP	80	0	2
TAP	80	96	2
TAP	80	192	3
TAP	80	288	3
HLD	81	0	2	192
HLD	81	0	4	192
TAP	82	0	5
TAP	82	96	5
TAP	82	192	4
TAP	82	288	4
HLD	83	0	3	192
HLD	83	0	5	192
TAP	84	0	6
TAP	84	96	6
TAP	84	192	7
TAP	84	288	7
TAP	85	0	0
TAP	85	96	0
TAP	85	192	0
TAP	85	192	1
TAP	86	0	0
TAP	86	96	0
TAP	86	192	7
TAP	86	288	7
HLD	87	0	1	192
HLD	87	0	6	192
TAP	88	0	0
TAP	88	0	7

T_REC_TAP	194
T_REC_BRK	4
T_REC_XTP	0
T_REC_HLD	30
T_REC_XHO	0
T_REC_STR	4
T_REC_BST	0
T_REC_XST	0
T_REC_TTP	0
T_REC_THO	0
T_REC_SLD	4
T_REC_ALL	236
T_NUM_TAP	198
T_NUM_BRK	4
T_NUM_HLD	30
T_NUM_SLD	4
T_NUM_ALL	236
T_JUDGE_TAP	202
T_JUDGE_HLD	136
T_JUDGE_SLD	4
T_JUDGE_ALL	342
TTM_EACHPAIRS	35
TTM_SCR_TAP	99000
TTM_SCR_BRK	10400
TTM_SCR_HLD	30000
TTM_SCR_SLD	6000
TTM_SCR_ALL	145400
TTM_SCR_S	140650
TTM_SCR_SS	145000
TTM_RAT_ACV	10027

