VERSION	0.00.00	1.03.00
FES_MODE	0
BPM_DEF	160.000	160.000	160.000	160.000
MET_DEF	4	4
RESOLUTION	384
CLK_DEF	384
COMPATIBLE_CODE	MA2

BPM	0	0	160.000
MET	0	0	4	4

HLD	1	192	3	96
HLD	1	288	2	96
HLD	2	0	1	288
TAP	2	96	0
TAP	2	192	7
STR	2	288	6
SCL	2	288	6	96	288	7
TAP	3	0	1
TAP	3	72	1
HLD	3	144	1	144
HLD	4	0	3	192
HLD	4	192	4	72
HLD	4	264	5	72
HLD	4	336	6	192
TAP	5	0	7
TAP	5	72	0
TAP	5	144	1
TAP	5	288	2
TAP	5	288	6
HLD	6	0	0	144
HLD	6	0	4	144
HLD	6	240	1	48
HLD	6	288	5	48
HLD	6	336	2	48
HLD	7	0	6	48
HLD	7	48	3	48
HLD	7	96	7	144
HLD	7	240	0	144
TAP	7	336	7
STR	8	0	7
SCL	8	0	7	96	384	3
SXL	8	0	7	96	384	3
STR	9	192	0
SI_	9	192	0	96	48	4
TAP	9	288	0
BRK	9	288	7
TAP	10	0	2
TAP	10	0	3
HLD	10	48	3	96
HLD	10	144	5	96
HLD	10	240	7	96
HLD	10	336	1	96
HLD	11	48	0	96
HLD	11	144	6	96
HLD	11	240	4	96
TAP	11	288	2
TAP	11	336	2
TAP	12	48	5
TAP	12	48	6
TAP	12	144	0
TAP	12	144	2
TAP	12	240	4
TAP	12	240	5
TAP	12	336	1
TAP	12	336	3
TAP	13	48	0
TAP	13	48	7
TAP	13	144	2
TAP	13	144	4
TAP	13	240	3
TAP	13	264	4
TAP	13	288	3
TAP	13	336	1
TAP	13	336	6
HLD	14	48	4	96
TAP	14	48	5
HLD	14	144	2	96
HLD	14	240	0	96
HLD	14	336	6	96
HLD	15	48	7	96
HLD	15	144	1	96
HLD	15	240	3	96
TAP	15	288	5
TAP	15	336	5
TAP	16	0	2
TAP	16	0	3
TAP	16	48	6
TAP	16	144	4
TAP	16	144	5
TAP	16	192	1
TAP	16	288	2
TAP	16	288	3
TAP	16	336	7
TAP	17	48	4
TAP	17	48	5
TAP	17	96	0
STR	17	192	7
SI_	17	192	7	96	48	3
BRK	17	288	0
TAP	17	288	7
STR	18	0	2
SUL	18	0	2	96	48	6
STR	18	192	6
SUL	18	192	6	96	48	2
STR	19	0	1
SUR	19	0	1	96	96	5
STR	19	0	5
SUR	19	0	5	96	96	1
TAP	19	288	3
TAP	19	336	4
TAP	20	0	5
TAP	20	96	7
HLD	20	144	0	240
STR	20	288	2
SCL	20	288	2	96	192	5
TAP	21	0	2
TAP	21	288	1
TAP	21	288	4
TAP	21	336	2
TAP	21	336	5
HLD	22	0	3	144
TAP	22	0	6
HLD	22	144	1	144
TAP	22	288	6
HLD	23	0	0	48
HLD	23	0	4	48
HLD	23	96	3	48
HLD	23	96	7	48
HLD	23	192	2	48
HLD	23	192	6	48
HLD	23	288	1	48
HLD	23	288	5	48
STR	24	0	0
SCR	24	0	0	96	96	4
TAP	24	48	5
TAP	24	96	6
TAP	24	144	7
TAP	24	240	7
TAP	24	288	7
STR	25	0	0
SI_	25	0	0	96	48	2
SI_	25	0	0	96	48	4
STR	25	96	0
SI_	25	96	0	96	48	3
SI_	25	96	0	96	48	5
STR	25	192	0
SI_	25	192	0	96	48	4
SI_	25	192	0	96	48	6
BRK	25	288	0
TAP	26	0	2
TAP	26	0	3
TAP	26	48	1
TAP	26	96	2
TAP	26	96	3
TAP	26	144	1
TAP	26	192	3
TAP	26	192	6
TAP	26	240	5
TAP	26	264	4
TAP	26	288	5
TAP	26	336	3
TAP	26	336	6
TAP	27	0	4
TAP	27	0	5
TAP	27	48	6
TAP	27	96	4
TAP	27	96	5
TAP	27	144	6
TAP	27	192	1
TAP	27	192	4
TAP	27	240	2
TAP	27	264	3
TAP	27	288	2
TAP	27	336	1
TAP	27	336	4
TAP	28	0	6
TAP	28	48	7
TAP	28	96	0
HLD	28	144	1	144
TAP	28	192	0
TAP	28	240	7
TAP	28	288	6
STR	29	0	0
SI_	29	0	0	96	48	4
TAP	29	0	7
TAP	29	96	0
STR	29	96	7
SI_	29	96	7	96	48	3
TAP	29	192	6
TAP	29	192	7
TAP	29	288	5
TAP	29	336	4
TAP	30	0	5
TAP	30	48	0
TAP	30	72	7
TAP	30	96	0
TAP	30	144	2
TAP	30	144	3
TAP	30	192	1
TAP	30	192	2
TAP	30	288	4
TAP	30	288	5
STR	30	336	5
SCL	30	336	5	96	96	1
TAP	30	336	6
TAP	31	48	6
TAP	31	96	7
TAP	31	144	0
TAP	31	192	7
TAP	31	240	3
TAP	31	264	4
TAP	31	288	3
TAP	31	336	7
STR	32	0	7
SLR	32	0	7	96	96	5
STR	32	96	5
SLL	32	96	5	96	96	7
STR	32	192	7
SCL	32	192	7	96	48	3
SCR	32	192	7	96	48	3
BRK	33	0	2
TAP	33	24	3
TAP	33	48	2
TAP	33	72	3
TAP	33	96	1
TAP	33	120	4
TAP	33	144	1
TAP	33	168	4
BRK	33	192	2
TAP	33	216	3
TAP	33	240	1
TAP	33	264	4
BRK	33	288	0
TAP	33	312	5
TAP	33	336	7
TAP	33	360	6
HLD	34	0	1	96
TAP	34	96	3
TAP	34	144	2
TAP	34	144	3
HLD	34	240	6	48
TAP	34	288	4
TAP	34	336	4
TAP	34	336	5
STR	35	48	0
SI_	35	48	0	96	48	4
STR	35	48	7
SI_	35	48	7	96	48	3
TAP	35	144	0
TAP	35	144	7
TAP	35	240	2
TAP	35	240	3
TAP	35	288	0
TAP	35	288	1
TAP	35	336	6
TAP	35	336	7
TAP	36	0	4
HLD	36	0	5	96
TAP	36	96	4
TAP	36	144	4
TAP	36	144	6
HLD	36	240	2	48
TAP	36	288	3
TAP	36	336	1
TAP	36	336	3
STR	37	48	0
SI_	37	48	0	96	48	4
STR	37	48	1
SI_	37	48	1	96	48	5
TAP	37	144	0
TAP	37	144	1
TAP	37	240	2
TAP	37	264	3
TAP	37	288	2
TAP	37	336	1
TAP	37	336	4
HLD	38	0	6	96
TAP	38	0	7
TAP	38	96	7
TAP	38	144	5
TAP	38	144	7
HLD	38	240	1	48
TAP	38	288	0
TAP	38	336	0
TAP	38	336	2
STR	39	48	6
SI_	39	48	6	96	48	2
STR	39	48	7
SI_	39	48	7	96	48	3
TAP	39	144	6
TAP	39	144	7
TAP	39	240	0
TAP	39	240	4
TAP	39	288	1
TAP	39	288	3
TAP	39	336	5
TAP	39	336	7
HLD	40	0	1	144
TAP	40	72	3
TAP	40	144	7
HLD	40	192	6	144
TAP	40	264	4
TAP	40	336	0
TAP	41	0	6
TAP	41	0	7
TAP	41	48	6
STR	41	48	7
SI_	41	48	7	96	48	3
STR	41	144	0
SI_	41	144	0	96	48	4
TAP	41	240	1
TAP	41	336	3
TAP	42	0	5
TAP	42	24	4
TAP	42	48	5
TAP	42	72	4
TAP	42	96	6
TAP	42	120	3
TAP	42	144	6
TAP	42	168	3
BRK	42	192	5
TAP	42	216	4
TAP	42	240	6
TAP	42	264	3
BRK	42	288	7
TAP	42	312	2
TAP	42	336	0
TAP	42	360	1
BRK	43	0	7
STR	43	96	7
SCR	43	96	7	96	48	4
SUR	43	96	7	96	48	4
TAP	43	192	7
STR	43	288	5
SXL	43	288	5	96	144	1
TAP	44	0	2
TAP	44	72	3
HLD	44	144	4	144
TAP	44	288	7
STR	45	0	7
SCL	45	0	7	96	48	3
SCR	45	0	7	96	48	3
STR	45	96	7
SUL	45	96	7	96	48	3
SUR	45	96	7	96	48	3
STR	45	288	5
SUL	45	288	5	96	144	2
TAP	46	0	7
TAP	46	72	0
HLD	46	144	1	144
TAP	46	288	2
HLD	47	0	1	144
STR	47	144	3
SCR	47	144	3	96	96	7
TAP	47	240	3
TAP	47	288	2
TAP	47	336	1
TAP	48	0	0
TAP	48	0	6
TAP	48	48	1
TAP	48	48	5
TAP	48	96	2
TAP	48	96	4
TAP	48	240	2
STR	48	288	2
SCL	48	288	2	96	96	6
TAP	48	336	4
STR	49	0	6
SCL	49	0	6	96	96	2
STR	49	96	2
SCR	49	96	2	96	144	1
HLD	49	336	5	96
TAP	50	48	1
TAP	50	96	3
TAP	50	96	7
STR	50	144	1
SCR	50	144	1	96	48	3
STR	50	144	5
SCR	50	144	5	96	48	7
TAP	50	192	3
TAP	50	192	7
TAP	50	240	1
TAP	50	240	5
STR	51	0	1
SCL	51	0	1	96	96	5
STR	51	96	5
SCR	51	96	5	96	96	3
STR	51	192	3
SUR	51	192	3	96	96	4
TAP	51	288	7
TAP	52	0	7
TAP	52	72	1
TAP	52	72	5
TAP	52	144	3
STR	52	192	4
SI_	52	192	4	96	48	1
STR	52	192	5
SI_	52	192	5	96	48	0
TAP	52	288	4
TAP	52	288	5
STR	53	0	6
SCR	53	0	6	96	96	2
STR	53	96	2
SCL	53	96	2	96	96	4
STR	53	192	4
SUL	53	192	4	96	96	3
TAP	53	264	0
TAP	53	336	0
TAP	54	0	0
STR	54	72	0
SI_	54	72	0	96	24	3
SI_	54	72	0	96	24	5
TAP	54	144	0
TAP	54	288	3
TAP	54	288	7
STR	55	0	1
SUR	55	0	1	96	48	5
STR	55	0	5
SUR	55	0	5	96	48	1
STR	55	96	1
SCL	55	96	1	96	48	5
STR	55	96	5
SCL	55	96	5	96	48	1
TAP	55	288	0
TAP	55	288	4
TAP	56	0	3
TAP	56	0	7
TAP	56	48	2
TAP	56	48	6
TAP	56	96	1
TAP	56	96	5
TAP	56	240	4
TAP	56	240	5
TAP	56	288	3
TAP	56	288	6
TAP	56	336	2
TAP	56	336	7
BST	57	0	0
SCR	57	0	0	96	288	4
SXR	57	0	0	96	288	4
HLD	58	192	4	96
HLD	58	288	5	96
HLD	59	0	6	288
TAP	59	96	7
TAP	59	192	0
STR	59	288	1
SCR	59	288	1	96	288	0
TAP	60	0	6
TAP	60	72	6
HLD	60	144	6	144
HLD	61	0	4	192
HLD	61	192	3	72
HLD	61	264	2	72
HLD	61	336	1	192
TAP	62	0	0
TAP	62	72	7
TAP	62	144	6
TAP	62	288	1
TAP	62	288	5
HLD	63	0	3	144
HLD	63	0	7	144
HLD	63	240	6	48
HLD	63	288	2	48
HLD	63	336	5	48
HLD	64	0	1	48
HLD	64	48	4	48
HLD	64	96	0	288
TAP	64	240	3
TAP	64	288	3
TAP	64	336	3
BRK	65	0	3
TAP	65	16	4
TAP	65	32	5
STR	65	48	6
SXL	65	48	6	96	816	2

T_REC_TAP	266
T_REC_BRK	10
T_REC_XTP	0
T_REC_HLD	71
T_REC_XHO	0
T_REC_STR	53
T_REC_BST	1
T_REC_XST	0
T_REC_TTP	0
T_REC_THO	0
T_REC_SLD	64
T_REC_ALL	465
T_NUM_TAP	319
T_NUM_BRK	11
T_NUM_HLD	71
T_NUM_SLD	64
T_NUM_ALL	465
T_JUDGE_TAP	330
T_JUDGE_HLD	160
T_JUDGE_SLD	64
T_JUDGE_ALL	554
TTM_EACHPAIRS	85
TTM_SCR_TAP	159500
TTM_SCR_BRK	28600
TTM_SCR_HLD	71000
TTM_SCR_SLD	96000
TTM_SCR_ALL	355100
TTM_SCR_S	343400
TTM_SCR_SS	354000
TTM_RAT_ACV	10031

