VERSION	0.00.00	1.03.00
FES_MODE	0
BPM_DEF	160.000	160.000	160.000	160.000
MET_DEF	4	4
RESOLUTION	384
CLK_DEF	384
COMPATIBLE_CODE	MA2

BPM	0	0	160.000
MET	0	0	4	4

TAP	1	192	2
STR	1	288	2
SCR	1	288	2	96	144	5
STR	2	288	6
SUL	2	288	6	96	144	2
STR	3	288	1
SUR	3	288	1	96	144	5
STR	4	288	6
SCL	4	288	6	96	192	2
TAP	5	288	1
HLD	6	0	1	192
HLD	6	192	0	192
HLD	7	0	7	192
HLD	7	192	6	192
STR	8	0	5
SCR	8	0	5	96	288	2
TAP	9	192	3
TAP	9	192	4
TAP	9	288	1
TAP	9	288	6
TAP	10	0	2
TAP	10	96	3
TAP	10	192	2
TAP	10	288	1
TAP	10	288	4
TAP	11	0	5
TAP	11	96	4
TAP	11	192	5
TAP	11	288	3
TAP	11	288	6
TAP	12	0	1
TAP	12	96	0
TAP	12	192	1
TAP	12	288	2
TAP	12	288	7
TAP	13	0	6
TAP	13	96	7
TAP	13	192	6
TAP	13	288	0
TAP	13	288	5
TAP	14	0	1
TAP	14	48	1
TAP	14	96	3
TAP	14	192	5
TAP	14	240	4
TAP	14	288	3
TAP	15	0	6
TAP	15	48	6
TAP	15	96	4
TAP	15	192	2
TAP	15	240	3
TAP	15	288	4
TAP	16	0	0
TAP	16	0	1
TAP	16	48	0
TAP	16	48	1
TAP	16	144	6
TAP	16	144	7
TAP	16	192	6
TAP	16	192	7
TAP	16	288	3
TAP	16	288	4
TAP	16	336	3
TAP	16	336	4
TAP	17	48	1
TAP	17	48	6
TAP	17	96	1
TAP	17	96	6
BST	17	192	7
SI_	17	192	7	96	48	3
BRK	17	288	0
HLD	18	0	2	192
HLD	18	192	3	192
HLD	19	0	4	192
TAP	19	192	5
TAP	19	288	3
TAP	19	288	6
HLD	20	0	5	192
HLD	20	192	4	192
HLD	21	0	3	192
TAP	21	192	2
TAP	21	288	1
TAP	21	288	4
HLD	22	0	0	192
HLD	22	192	7	192
TAP	23	0	6
TAP	23	96	5
TAP	23	192	4
TAP	23	288	3
STR	24	0	2
SCL	24	0	2	96	192	5
TAP	25	0	5
TAP	25	96	4
TAP	25	192	3
TAP	25	288	2
TAP	26	0	1
TAP	26	48	0
TAP	26	96	1
TAP	26	192	6
TAP	26	240	7
TAP	26	288	6
TAP	27	0	0
TAP	27	48	0
TAP	27	96	7
TAP	27	144	7
TAP	27	192	1
TAP	27	240	0
TAP	27	288	1
TAP	28	0	2
TAP	28	48	3
TAP	28	96	2
TAP	28	192	5
TAP	28	240	4
TAP	28	288	5
TAP	29	0	6
TAP	29	0	7
STR	29	96	0
SI_	29	96	0	96	48	5
STR	29	96	1
SI_	29	96	1	96	48	4
TAP	30	0	6
TAP	30	48	6
TAP	30	96	0
TAP	30	144	0
STR	30	192	7
SI_	30	192	7	96	48	3
TAP	31	0	1
TAP	31	48	1
TAP	31	96	7
TAP	31	144	7
STR	31	192	0
SI_	31	192	0	96	48	4
HLD	32	0	5	96
TAP	32	96	4
HLD	32	192	2	96
TAP	32	288	3
TAP	33	0	1
TAP	33	0	4
TAP	33	96	2
TAP	33	96	6
TAP	33	192	0
TAP	33	192	5
TAP	33	288	3
TAP	33	288	7
TAP	34	0	0
TAP	34	0	1
TAP	34	96	2
TAP	34	144	2
TAP	34	144	3
TAP	34	240	5
TAP	34	288	4
TAP	34	336	3
TAP	34	336	6
TAP	35	48	1
TAP	35	48	5
TAP	35	144	2
TAP	35	144	7
TAP	35	240	0
TAP	35	240	6
TAP	35	288	0
TAP	35	288	6
TAP	36	0	6
TAP	36	0	7
TAP	36	96	5
TAP	36	144	4
TAP	36	144	5
TAP	36	240	2
TAP	36	288	3
TAP	36	336	1
TAP	36	336	4
TAP	37	48	2
TAP	37	48	6
TAP	37	144	0
TAP	37	144	5
TAP	37	240	1
TAP	37	240	7
TAP	37	288	1
TAP	37	288	7
TAP	38	0	0
TAP	38	0	1
TAP	38	96	2
TAP	38	144	2
TAP	38	144	3
TAP	38	240	5
TAP	38	288	4
TAP	38	336	3
TAP	38	336	6
TAP	39	48	1
TAP	39	48	5
TAP	39	144	2
TAP	39	144	7
TAP	39	240	0
TAP	39	240	6
TAP	39	288	0
TAP	39	288	6
STR	40	0	7
SI_	40	0	7	96	48	3
TAP	40	96	1
STR	40	192	0
SI_	40	192	0	96	48	4
TAP	40	288	6
STR	41	0	7
SCL	41	0	7	96	192	0
TAP	42	0	3
TAP	42	0	6
TAP	42	96	1
TAP	42	96	5
TAP	42	192	2
TAP	42	192	7
BRK	42	288	0
BRK	42	288	4
TAP	43	0	1
TAP	43	48	3
TAP	43	96	2
TAP	43	192	6
TAP	43	240	4
TAP	43	288	5
TAP	44	0	1
TAP	44	48	1
TAP	44	96	7
TAP	44	144	7
TAP	44	192	0
TAP	44	240	1
TAP	44	288	2
TAP	44	288	7
TAP	45	0	6
TAP	45	48	4
TAP	45	96	5
TAP	45	192	1
TAP	45	240	3
TAP	45	288	2
TAP	46	0	6
TAP	46	48	6
TAP	46	96	0
TAP	46	144	0
TAP	46	192	7
TAP	46	240	6
TAP	46	288	0
TAP	46	288	5
TAP	47	0	0
TAP	47	0	1
TAP	47	96	2
TAP	47	96	3
STR	47	192	4
SI_	47	192	4	96	48	0
TAP	47	192	5
TAP	47	288	6
TAP	48	0	6
TAP	48	0	7
TAP	48	96	4
TAP	48	96	5
TAP	48	192	2
STR	48	192	3
SI_	48	192	3	96	48	7
TAP	48	288	1
TAP	49	0	0
TAP	49	0	5
TAP	49	96	2
TAP	49	96	7
TAP	49	192	3
TAP	49	192	4
TAP	49	288	1
TAP	49	288	6
TAP	49	336	1
TAP	49	336	6
TAP	50	48	2
TAP	50	96	3
TAP	50	144	2
TAP	50	192	7
BRK	50	240	0
BRK	50	240	7
TAP	51	0	6
TAP	51	48	3
TAP	51	96	4
TAP	51	96	5
TAP	51	192	1
TAP	51	240	4
TAP	51	288	2
TAP	51	288	3
TAP	52	0	6
TAP	52	48	6
TAP	52	96	0
TAP	52	144	0
TAP	52	192	7
TAP	52	240	6
TAP	52	288	0
TAP	52	288	5
TAP	53	0	1
TAP	53	48	4
TAP	53	96	2
TAP	53	96	3
TAP	53	192	6
TAP	53	240	3
TAP	53	288	4
TAP	53	288	5
TAP	54	0	1
TAP	54	48	1
TAP	54	96	7
TAP	54	144	7
TAP	54	192	0
TAP	54	240	1
TAP	54	288	2
TAP	54	288	7
TAP	55	0	1
TAP	55	0	4
TAP	55	96	3
TAP	55	96	6
STR	55	192	2
SCL	55	192	2	96	48	0
STR	55	192	5
SCR	55	192	5	96	48	7
TAP	56	0	0
TAP	56	48	7
TAP	56	96	1
TAP	56	96	6
TAP	56	192	5
TAP	56	240	4
TAP	56	288	3
TAP	56	336	2
STR	57	0	0
SI_	57	0	0	96	48	5
STR	57	0	1
SI_	57	0	1	96	48	4
STR	57	192	6
SI_	57	192	6	96	48	3
STR	57	192	7
SI_	57	192	7	96	48	2
TAP	58	0	1
TAP	58	48	4
TAP	58	96	3
TAP	58	144	6
TAP	58	192	0
TAP	58	240	5
TAP	58	288	2
TAP	58	336	7
BRK	59	0	0
HLD	59	192	6	192
STR	60	0	5
SXR	60	0	5	96	240	0
TAP	61	0	7
HLD	61	192	1	192
STR	62	0	2
SXL	62	0	2	96	240	7
HLD	63	0	0	192
HLD	63	192	7	192
TAP	64	0	6
STR	64	96	5
SCL	64	96	5	96	96	2
TAP	65	0	3
TAP	65	0	4

T_REC_TAP	276
T_REC_BRK	6
T_REC_XTP	0
T_REC_HLD	18
T_REC_XHO	0
T_REC_STR	24
T_REC_BST	1
T_REC_XST	0
T_REC_TTP	0
T_REC_THO	0
T_REC_SLD	25
T_REC_ALL	350
T_NUM_TAP	300
T_NUM_BRK	7
T_NUM_HLD	18
T_NUM_SLD	25
T_NUM_ALL	350
T_JUDGE_TAP	307
T_JUDGE_HLD	68
T_JUDGE_SLD	25
T_JUDGE_ALL	400
TTM_EACHPAIRS	74
TTM_SCR_TAP	150000
TTM_SCR_BRK	18200
TTM_SCR_HLD	18000
TTM_SCR_SLD	37500
TTM_SCR_ALL	223700
TTM_SCR_S	216350
TTM_SCR_SS	223000
TTM_RAT_ACV	10031

