VERSION	0.00.00	1.03.00
FES_MODE	0
BPM_DEF	160.000	160.000	160.000	160.000
MET_DEF	4	4
RESOLUTION	384
CLK_DEF	384
COMPATIBLE_CODE	MA2

BPM	0	0	160.000
MET	0	0	4	4

HLD	2	0	2	192
TAP	2	192	3
HLD	3	0	5	192
TAP	3	192	4
HLD	4	0	2	192
TAP	4	192	3
HLD	5	0	5	192
TAP	5	192	4
HLD	6	0	1	192
TAP	6	192	3
HLD	7	0	6	192
TAP	7	192	4
STR	8	0	1
SCR	8	0	1	96	480	6
TAP	10	0	2
TAP	10	96	3
TAP	10	192	1
TAP	10	192	4
TAP	11	0	5
TAP	11	96	4
TAP	11	192	3
TAP	11	192	6
TAP	12	0	2
TAP	12	0	3
TAP	12	96	2
TAP	12	96	3
TAP	12	192	1
TAP	12	192	4
TAP	13	0	4
TAP	13	0	5
TAP	13	96	4
TAP	13	96	5
TAP	13	192	3
TAP	13	192	6
TAP	14	0	1
TAP	14	96	0
TAP	14	192	2
TAP	14	192	7
TAP	15	0	6
TAP	15	96	7
TAP	15	192	0
TAP	15	192	5
TAP	16	0	0
TAP	16	0	1
TAP	16	96	0
TAP	16	96	1
TAP	16	192	2
TAP	16	192	7
TAP	17	0	6
TAP	17	0	7
TAP	17	96	6
TAP	17	96	7
TAP	17	192	0
TAP	17	192	5
HLD	18	0	1	192
HLD	18	192	2	192
HLD	19	0	3	192
TAP	19	192	4
TAP	20	0	5
TAP	20	96	5
TAP	20	192	4
TAP	20	192	6
TAP	21	0	6
TAP	21	96	6
TAP	21	192	5
TAP	21	192	7
HLD	22	0	6	192
HLD	22	192	5	192
HLD	23	0	4	192
TAP	23	192	3
TAP	24	0	2
TAP	24	96	2
TAP	24	192	1
TAP	24	192	3
TAP	25	0	1
TAP	25	96	1
TAP	25	192	0
TAP	25	192	2
TAP	26	0	2
TAP	26	96	2
TAP	26	192	3
TAP	26	288	3
TAP	27	0	2
TAP	27	96	3
TAP	27	192	1
TAP	27	192	4
TAP	28	0	5
TAP	28	96	5
TAP	28	192	4
TAP	28	288	4
TAP	29	0	5
TAP	29	96	4
TAP	29	192	3
TAP	29	192	6
TAP	30	0	2
TAP	30	96	3
TAP	30	192	1
TAP	30	192	4
TAP	31	0	5
TAP	31	96	4
TAP	31	192	3
TAP	31	192	6
HLD	32	0	0	384
HLD	32	0	7	384
STR	34	0	0
SI_	34	0	0	96	192	5
STR	34	0	1
SI_	34	0	1	96	192	4
TAP	35	192	0
TAP	35	192	7
TAP	35	288	0
TAP	35	288	7
STR	36	0	6
SI_	36	0	6	96	192	3
STR	36	0	7
SI_	36	0	7	96	192	2
TAP	37	192	0
TAP	37	192	7
TAP	37	288	0
TAP	37	288	7
STR	38	0	0
SCL	38	0	0	96	192	5
STR	38	0	1
SCR	38	0	1	96	192	4
TAP	39	192	0
TAP	39	192	7
TAP	39	288	0
TAP	39	288	7
STR	40	0	6
SCL	40	0	6	96	192	3
STR	40	0	7
SCR	40	0	7	96	192	2
TAP	41	192	0
TAP	41	192	7
TAP	41	288	0
TAP	41	288	7
BRK	42	0	1
BRK	42	0	6
TAP	43	0	2
TAP	43	96	3
TAP	43	192	2
TAP	43	288	3
TAP	44	0	1
TAP	44	0	4
TAP	44	96	1
TAP	44	96	4
TAP	44	192	0
TAP	44	288	0
TAP	45	0	5
TAP	45	96	4
TAP	45	192	5
TAP	45	288	4
TAP	46	0	3
TAP	46	0	6
TAP	46	96	3
TAP	46	96	6
TAP	46	192	7
TAP	46	288	7
TAP	47	0	2
TAP	47	96	2
TAP	47	96	3
TAP	47	192	2
TAP	47	288	2
TAP	47	288	3
TAP	48	0	5
TAP	48	96	4
TAP	48	96	5
TAP	48	192	3
TAP	48	192	6
TAP	49	0	5
TAP	49	96	4
TAP	49	96	5
TAP	49	192	5
TAP	49	288	4
TAP	49	288	5
TAP	50	0	2
TAP	50	96	2
TAP	50	96	3
TAP	50	192	1
TAP	50	192	4
TAP	51	0	1
TAP	51	96	0
TAP	51	192	1
TAP	51	288	0
TAP	52	0	2
TAP	52	0	7
TAP	52	96	3
TAP	52	96	6
TAP	52	192	4
TAP	52	192	5
TAP	52	288	4
TAP	52	288	5
TAP	53	0	6
TAP	53	96	7
TAP	53	192	6
TAP	53	288	7
TAP	54	0	0
TAP	54	0	5
TAP	54	96	1
TAP	54	96	4
TAP	54	192	2
TAP	54	192	3
TAP	54	288	2
TAP	54	288	3
TAP	55	0	2
TAP	55	96	1
TAP	55	96	3
TAP	55	192	2
TAP	55	288	1
TAP	55	288	3
TAP	56	0	5
TAP	56	96	4
TAP	56	96	6
TAP	56	192	3
TAP	56	192	7
TAP	57	0	5
TAP	57	96	4
TAP	57	96	6
TAP	57	192	5
TAP	57	288	4
TAP	57	288	6
TAP	58	0	2
TAP	58	96	1
TAP	58	96	3
TAP	58	192	0
TAP	58	192	4
HLD	59	0	5	192
HLD	59	192	4	192
HLD	60	0	3	192
TAP	60	192	2
HLD	61	0	2	192
HLD	61	192	3	192
HLD	62	0	4	192
TAP	62	192	5
TAP	63	0	3
TAP	63	192	2
TAP	64	0	1
TAP	64	192	0
STR	65	0	7
SCL	65	0	7	96	480	0

T_REC_TAP	198
T_REC_BRK	2
T_REC_XTP	0
T_REC_HLD	20
T_REC_XHO	0
T_REC_STR	10
T_REC_BST	0
T_REC_XST	0
T_REC_TTP	0
T_REC_THO	0
T_REC_SLD	10
T_REC_ALL	240
T_NUM_TAP	208
T_NUM_BRK	2
T_NUM_HLD	20
T_NUM_SLD	10
T_NUM_ALL	240
T_JUDGE_TAP	210
T_JUDGE_HLD	88
T_JUDGE_SLD	10
T_JUDGE_ALL	308
TTM_EACHPAIRS	66
TTM_SCR_TAP	104000
TTM_SCR_BRK	5200
TTM_SCR_HLD	20000
TTM_SCR_SLD	15000
TTM_SCR_ALL	144200
TTM_SCR_S	139700
TTM_SCR_SS	144000
TTM_RAT_ACV	10013

