VERSION	0.00.00	1.03.00
FES_MODE	0
BPM_DEF	160.000	160.000	160.000	160.000
MET_DEF	4	4
RESOLUTION	384
CLK_DEF	384
COMPATIBLE_CODE	MA2

BPM	0	0	160.000
MET	0	0	4	4

TAP	2	0	0
TAP	3	0	0
TAP	4	0	7
TAP	5	0	7
TAP	6	0	0
TAP	7	0	0
STR	8	0	7
SI_	8	0	7	96	288	3
TAP	10	0	2
TAP	10	192	2
TAP	11	0	3
TAP	11	192	3
TAP	12	0	4
TAP	12	192	4
TAP	13	0	5
TAP	13	192	4
TAP	13	192	5
TAP	14	0	5
TAP	14	192	5
TAP	15	0	4
TAP	15	192	4
TAP	16	0	3
TAP	16	192	3
TAP	17	0	2
TAP	17	192	2
TAP	17	192	3
HLD	18	0	1	384
HLD	20	0	0	384
HLD	22	0	7	384
STR	24	0	6
SI_	24	0	6	96	288	3
TAP	26	0	2
TAP	26	192	2
HLD	27	0	2	192
TAP	28	0	3
TAP	28	192	3
TAP	29	0	4
TAP	29	96	4
TAP	29	192	4
TAP	30	0	5
TAP	30	192	5
TAP	31	0	6
TAP	31	192	6
HLD	32	0	7	384
TAP	34	0	0
TAP	34	0	1
TAP	34	192	0
TAP	34	192	1
TAP	35	0	0
TAP	35	0	1
TAP	36	0	6
TAP	36	0	7
TAP	36	192	6
TAP	36	192	7
TAP	37	0	6
TAP	37	0	7
TAP	38	0	4
TAP	38	0	5
TAP	38	192	4
TAP	38	192	5
TAP	39	0	4
TAP	39	0	5
TAP	40	0	3
TAP	40	192	4
STR	41	0	3
SI_	41	0	3	96	288	0
STR	41	0	4
SI_	41	0	4	96	288	7
TAP	43	0	0
TAP	43	96	0
TAP	43	192	0
TAP	44	0	1
TAP	44	96	1
TAP	44	192	1
TAP	45	0	2
TAP	45	96	2
TAP	45	192	2
TAP	46	0	3
TAP	46	96	3
TAP	46	192	3
TAP	47	0	5
TAP	47	96	4
TAP	47	192	5
TAP	48	0	2
TAP	48	96	3
TAP	48	192	2
HLD	49	0	2	192
HLD	49	0	5	192
TAP	50	0	3
TAP	50	96	4
BRK	50	192	3
TAP	51	0	4
TAP	51	96	4
TAP	51	192	4
TAP	52	0	5
TAP	52	96	5
TAP	52	192	5
TAP	53	0	6
TAP	53	96	6
TAP	53	192	6
TAP	54	0	7
TAP	54	96	7
TAP	54	192	7
TAP	55	0	1
TAP	55	96	0
TAP	55	192	1
TAP	56	0	6
TAP	56	96	7
TAP	56	192	6
HLD	57	0	0	384
HLD	57	0	7	384
BRK	59	0	7
TAP	60	0	6
TAP	61	0	5
TAP	62	0	4
TAP	63	0	3
TAP	64	0	2
STR	65	0	1
SI_	65	0	1	96	288	4

T_REC_TAP	98
T_REC_BRK	2
T_REC_XTP	0
T_REC_HLD	9
T_REC_XHO	0
T_REC_STR	5
T_REC_BST	0
T_REC_XST	0
T_REC_TTP	0
T_REC_THO	0
T_REC_SLD	5
T_REC_ALL	119
T_NUM_TAP	103
T_NUM_BRK	2
T_NUM_HLD	9
T_NUM_SLD	5
T_NUM_ALL	119
T_JUDGE_TAP	105
T_JUDGE_HLD	60
T_JUDGE_SLD	5
T_JUDGE_ALL	170
TTM_EACHPAIRS	14
TTM_SCR_TAP	51500
TTM_SCR_BRK	5200
TTM_SCR_HLD	9000
TTM_SCR_SLD	7500
TTM_SCR_ALL	73200
TTM_SCR_S	70850
TTM_SCR_SS	73000
TTM_RAT_ACV	10027

