VERSION	0.00.00	1.03.00
FES_MODE	0
BPM_DEF	138.000	138.000	138.000	138.000
MET_DEF	4	4
RESOLUTION	384
CLK_DEF	384
COMPATIBLE_CODE	MA2

BPM	0	0	138.000
MET	0	0	4	4
MET	10	0	4	5
MET	11	96	4	4

TAP	2	0	1
TAP	2	48	3
TAP	2	96	2
TAP	2	144	4
TAP	2	192	3
TAP	2	240	5
STR	2	288	4
SF_	2	288	4	96	192	0
TAP	2	336	6
TAP	3	0	4
TAP	4	0	6
TAP	4	48	4
TAP	4	96	5
TAP	4	144	3
TAP	4	192	4
TAP	4	240	2
STR	4	288	3
SF_	4	288	3	96	192	7
TAP	4	336	1
TAP	5	0	3
TAP	5	240	0
STR	5	288	0
SCR	5	288	0	96	48	3
TAP	5	336	0
TAP	6	48	6
STR	6	96	6
SCL	6	96	6	96	48	3
TAP	6	144	6
TAP	6	240	7
STR	6	288	7
SCR	6	288	7	96	48	2
TAP	6	336	7
TAP	7	48	7
STR	7	96	7
SCL	7	96	7	96	48	4
TAP	7	144	7
TAP	7	288	2
TAP	7	336	7
HLD	8	0	1	192
TAP	8	48	4
TAP	8	96	2
TAP	8	144	0
HLD	8	192	6	192
TAP	8	240	3
TAP	8	288	5
TAP	8	336	7
TAP	9	0	1
TAP	9	48	0
TAP	9	96	6
TAP	9	144	7
TAP	9	192	3
TAP	9	240	2
TAP	9	288	4
TAP	9	336	5
BST	10	0	3
SCL	10	0	3	96	288	4
SUR	10	0	3	96	288	4
STR	11	96	2
SI_	11	96	2	96	48	7
STR	11	96	6
SI_	11	96	6	96	48	3
TAP	11	192	2
TAP	11	192	6
STR	11	288	1
SI_	11	288	1	96	48	4
STR	11	288	5
SI_	11	288	5	96	48	0
TAP	12	0	1
TAP	12	0	5
STR	12	96	2
SI_	12	96	2	96	48	7
STR	12	96	6
SI_	12	96	6	96	48	3
TAP	12	192	2
TAP	12	192	6
STR	12	288	1
SI_	12	288	1	96	48	4
STR	12	288	5
SI_	12	288	5	96	48	0
TAP	13	0	1
TAP	13	0	5
STR	13	96	7
SCL	13	96	7	96	48	4
STR	13	192	7
SUL	13	192	7	96	48	3
STR	13	288	7
SUL	13	288	7	96	48	2
TAP	14	0	7
STR	14	96	0
SCR	14	96	0	96	48	3
STR	14	192	0
SUR	14	192	0	96	48	4
STR	14	288	0
SUR	14	288	0	96	48	5
TAP	15	0	0
STR	15	96	3
SCL	15	96	3	96	96	6
TAP	15	192	4
STR	15	288	4
SCR	15	288	4	96	96	1
TAP	16	0	3
STR	16	96	3
SCL	16	96	3	96	96	5
TAP	16	192	4
STR	16	288	4
SCR	16	288	4	96	96	2
TAP	17	0	3
TAP	17	96	3
TAP	17	144	2
TAP	17	192	1
TAP	17	240	0
TAP	17	288	7
TAP	17	336	6
TAP	18	0	5
TAP	18	48	4
TAP	18	96	1
TAP	18	120	0
TAP	18	144	2
TAP	18	168	7
TAP	18	192	3
TAP	18	216	6
TAP	18	240	4
TAP	18	264	5
TAP	18	288	6
TAP	18	312	4
TAP	18	336	7
TAP	18	360	3
TAP	19	0	0
TAP	19	24	2
TAP	19	48	1
TAP	19	72	0
BRK	19	96	2
BRK	19	96	7
TAP	19	240	0
TAP	19	288	0
TAP	19	360	1
TAP	20	48	2
TAP	20	96	3
TAP	20	96	6
TAP	20	240	7
TAP	20	288	7
TAP	20	360	6
TAP	21	48	5
TAP	21	96	2
TAP	21	96	4
TAP	21	144	3
TAP	21	192	2
TAP	21	240	1
TAP	21	288	1
TAP	21	288	3
TAP	21	336	2
TAP	22	0	1
TAP	22	48	0
TAP	22	96	1
TAP	22	96	7
TAP	22	288	2
TAP	22	288	7
TAP	23	0	1
TAP	23	0	6
TAP	23	96	0
TAP	23	96	5
TAP	23	240	7
TAP	23	288	7
TAP	23	360	6
TAP	24	48	5
TAP	24	96	1
TAP	24	96	4
TAP	24	240	0
TAP	24	288	0
TAP	24	360	1
TAP	25	48	2
TAP	25	96	3
TAP	25	96	5
TAP	25	144	4
TAP	25	192	5
TAP	25	240	6
TAP	25	288	4
TAP	25	288	6
TAP	25	336	5
TAP	26	0	6
TAP	26	48	7
TAP	26	96	0
HLD	26	96	6	96
TAP	26	192	7
TAP	26	240	0
TAP	26	288	1
TAP	26	288	6
TAP	27	0	3
TAP	27	0	4
STR	27	96	7
SI_	27	96	7	96	48	4
TAP	27	168	0
TAP	27	240	2
STR	27	288	4
SI_	27	288	4	96	48	7
TAP	27	360	3
TAP	28	48	1
STR	28	96	7
SI_	28	96	7	96	48	4
TAP	28	168	0
TAP	28	240	2
STR	28	288	3
SCL	28	288	3	96	96	0
STR	29	0	0
SI_	29	0	0	96	96	4
STR	29	96	4
SCR	29	96	4	96	96	7
TAP	29	192	7
STR	29	288	4
SCR	29	288	4	96	96	7
STR	30	0	7
SI_	30	0	7	96	96	3
STR	30	96	3
SCL	30	96	3	96	96	0
STR	30	192	0
SI_	30	192	0	96	96	4
STR	30	288	4
SCR	30	288	4	96	96	7
TAP	31	0	7
STR	31	96	0
SI_	31	96	0	96	48	3
TAP	31	168	7
TAP	31	240	5
STR	31	288	3
SI_	31	288	3	96	48	0
TAP	31	360	4
TAP	32	48	6
STR	32	96	0
SI_	32	96	0	96	48	3
TAP	32	168	7
TAP	32	240	5
STR	32	288	3
SI_	32	288	3	96	48	0
TAP	32	360	4
TAP	33	48	6
TAP	33	96	6
TAP	33	96	7
TAP	33	168	1
TAP	33	168	4
TAP	33	240	2
TAP	33	240	3
TAP	33	288	0
TAP	33	288	1
TAP	33	360	3
TAP	33	360	6
TAP	34	48	4
TAP	34	48	5
STR	34	96	3
SUL	34	96	3	96	48	7
STR	34	96	7
SUL	34	96	7	96	48	3
STR	34	192	3
SCR	34	192	3	96	96	6
STR	34	192	7
SCR	34	192	7	96	96	2
TAP	34	288	3
TAP	34	288	7
BRK	35	96	1
BRK	35	96	6
TAP	36	0	2
TAP	36	48	1
STR	36	96	0
SUR	36	96	0	96	48	4
HLD	36	96	6	192
STR	36	192	0
SCR	36	192	0	96	48	3
TAP	36	288	0
TAP	36	336	4
TAP	37	0	5
TAP	37	48	6
HLD	37	96	1	192
STR	37	96	7
SUL	37	96	7	96	48	3
STR	37	192	7
SCL	37	192	7	96	48	4
TAP	37	288	7
TAP	38	0	2
TAP	38	0	6
TAP	38	48	3
TAP	38	48	7
STR	38	96	0
SI_	38	96	0	96	48	5
STR	38	96	4
SI_	38	96	4	96	48	1
TAP	38	192	0
TAP	38	192	4
STR	38	288	2
SI_	38	288	2	96	48	7
STR	38	288	6
SI_	38	288	6	96	48	3
TAP	39	0	2
TAP	39	0	6
STR	39	96	5
SUR	39	96	5	96	96	2
STR	39	192	2
SUR	39	192	2	96	96	0
TAP	39	288	0
TAP	39	336	1
TAP	40	0	2
TAP	40	48	3
TAP	40	96	4
TAP	40	96	5
TAP	40	144	0
TAP	40	192	1
TAP	40	240	2
TAP	40	288	3
TAP	40	288	4
TAP	40	336	7
TAP	41	0	0
TAP	41	48	1
TAP	41	96	2
TAP	41	96	3
TAP	41	144	6
TAP	41	192	7
TAP	41	240	0
TAP	41	288	1
TAP	41	288	2
TAP	42	0	3
TAP	42	0	6
TAP	42	48	2
TAP	42	48	7
TAP	42	96	0
STR	42	96	1
SCR	42	96	1	96	96	4
STR	42	192	4
SUR	42	192	4	96	192	6
TAP	42	288	6
TAP	43	0	6
STR	43	48	6
SUL	43	48	6	96	192	4
TAP	43	336	3
TAP	44	0	2
TAP	44	48	1
STR	44	96	0
SI_	44	96	0	96	48	4
STR	44	96	1
SI_	44	96	1	96	48	3
STR	44	192	1
SI_	44	192	1	96	48	5
TAP	44	288	1
TAP	44	336	4
TAP	45	0	5
TAP	45	48	6
STR	45	96	6
SI_	45	96	6	96	48	4
STR	45	96	7
SI_	45	96	7	96	48	3
STR	45	192	6
SI_	45	192	6	96	48	2
TAP	45	288	6
TAP	46	0	1
TAP	46	0	5
TAP	46	48	0
TAP	46	48	4
STR	46	96	3
SI_	46	96	3	96	48	6
STR	46	96	7
SI_	46	96	7	96	48	2
TAP	46	192	3
TAP	46	192	7
STR	46	288	1
SI_	46	288	1	96	48	4
STR	46	288	5
SI_	46	288	5	96	48	0
TAP	47	0	1
TAP	47	0	5
STR	47	96	1
SLL	47	96	1	96	96	4
STR	47	192	4
SLL	47	192	4	96	96	6
TAP	47	288	7
TAP	47	336	6
TAP	48	0	5
TAP	48	48	4
TAP	48	96	2
TAP	48	96	3
TAP	48	144	7
TAP	48	192	6
TAP	48	240	5
TAP	48	288	3
TAP	48	288	4
TAP	48	336	0
TAP	49	0	7
TAP	49	48	6
TAP	49	96	4
TAP	49	96	5
TAP	49	144	1
TAP	49	192	0
TAP	49	240	7
TAP	49	288	5
TAP	49	288	6
TAP	49	336	4
TAP	49	336	5
TAP	50	0	3
TAP	50	0	6
TAP	50	48	2
TAP	50	48	7
STR	50	96	1
SCR	50	96	1	96	48	4
TAP	50	144	1
STR	50	192	0
SCL	50	192	0	96	48	5
TAP	50	240	0
STR	50	288	1
SCR	50	288	1	96	48	4
TAP	50	336	1
STR	51	0	0
SXL	51	0	0	96	288	3
SXR	51	0	0	96	288	5
TAP	51	48	0
TAP	51	96	0
TAP	52	96	0
TAP	52	120	7
TAP	52	144	0
TAP	52	168	7
TAP	52	192	0
TAP	52	216	7
TAP	52	240	0
TAP	52	264	7
STR	52	288	0
SUR	52	288	0	96	96	2
TAP	52	300	1
TAP	52	312	2
TAP	52	324	3
TAP	52	336	4
TAP	52	348	5
TAP	52	360	6
TAP	52	372	7
TAP	53	0	0
BRK	53	192	0
BRK	53	192	7
TAP	53	336	3
TAP	54	0	2
TAP	54	48	1
STR	54	96	0
SUR	54	96	0	96	48	4
HLD	54	96	6	192
STR	54	192	0
SCR	54	192	0	96	48	3
TAP	54	288	0
TAP	55	0	1
TAP	55	0	5
TAP	55	48	0
TAP	55	48	4
STR	55	96	3
SI_	55	96	3	96	48	6
STR	55	96	7
SI_	55	96	7	96	48	2
TAP	55	192	3
TAP	55	192	7
STR	55	288	1
SI_	55	288	1	96	48	4
STR	55	288	5
SI_	55	288	5	96	48	0
TAP	56	0	1
TAP	56	0	5
STR	56	96	2
SLL	56	96	2	96	96	5
STR	56	192	5
SLL	56	192	5	96	96	7
TAP	56	288	7
TAP	56	336	6
TAP	57	0	5
TAP	57	48	4
HLD	57	96	3	192
TAP	57	144	7
TAP	57	192	6
TAP	57	240	5
HLD	57	288	4	192
TAP	57	336	0
TAP	58	0	7
TAP	58	48	6
HLD	58	96	5	192
TAP	58	144	1
TAP	58	192	0
TAP	58	240	7
TAP	58	288	6
TAP	58	336	2
TAP	58	336	3
TAP	59	0	1
TAP	59	0	4
TAP	59	48	0
TAP	59	48	5
STR	59	96	6
SCL	59	96	6	96	96	3
TAP	59	96	7
STR	59	192	3
SUL	59	192	3	96	192	1
TAP	59	288	1
STR	60	0	1
SCL	60	0	1	96	96	6
STR	60	48	1
SUR	60	48	1	96	192	3
TAP	60	336	4
TAP	61	0	5
TAP	61	48	6
STR	61	96	6
SI_	61	96	6	96	48	4
STR	61	96	7
SI_	61	96	7	96	48	3
STR	61	192	6
SI_	61	192	6	96	48	2
TAP	61	192	7
TAP	61	288	3
TAP	61	288	6
TAP	61	336	3
TAP	62	0	2
TAP	62	48	1
STR	62	96	0
SI_	62	96	0	96	48	4
STR	62	96	1
SI_	62	96	1	96	48	3
TAP	62	192	0
STR	62	192	1
SI_	62	192	1	96	48	5
TAP	62	288	1
TAP	62	288	4
TAP	63	0	2
TAP	63	0	6
TAP	63	48	3
TAP	63	48	7
STR	63	96	0
SI_	63	96	0	96	48	5
STR	63	96	4
SI_	63	96	4	96	48	1
TAP	63	192	0
TAP	63	192	4
STR	63	288	2
SI_	63	288	2	96	48	7
STR	63	288	6
SI_	63	288	6	96	48	3
TAP	64	0	2
TAP	64	0	6
STR	64	96	5
SLR	64	96	5	96	96	2
STR	64	192	2
SLR	64	192	2	96	96	0
TAP	64	288	0
TAP	64	336	1
TAP	65	0	2
TAP	65	48	3
HLD	65	96	4	192
TAP	65	144	0
TAP	65	192	1
TAP	65	240	2
HLD	65	288	3	192
TAP	65	336	7
TAP	66	0	0
TAP	66	48	1
HLD	66	96	2	192
TAP	66	144	6
TAP	66	192	7
TAP	66	240	0
TAP	66	288	1
TAP	67	0	1
TAP	67	0	4
TAP	67	48	0
TAP	67	48	5
STR	67	96	6
SCL	67	96	6	96	48	3
TAP	67	144	6
STR	67	192	7
SCR	67	192	7	96	48	2
TAP	67	240	7
STR	67	288	6
SCL	67	288	6	96	48	3
TAP	67	336	6
STR	68	0	7
SXR	68	0	7	96	672	2
TAP	68	48	7
HLD	68	96	6	1344
STR	71	288	5
SI_	71	288	5	96	24	2

T_REC_TAP	346
T_REC_BRK	6
T_REC_XTP	0
T_REC_HLD	13
T_REC_XHO	0
T_REC_STR	102
T_REC_BST	1
T_REC_XST	0
T_REC_TTP	0
T_REC_THO	0
T_REC_SLD	105
T_REC_ALL	573
T_NUM_TAP	448
T_NUM_BRK	7
T_NUM_HLD	13
T_NUM_SLD	105
T_NUM_ALL	573
T_JUDGE_TAP	455
T_JUDGE_HLD	74
T_JUDGE_SLD	105
T_JUDGE_ALL	634
TTM_EACHPAIRS	88
TTM_SCR_TAP	224000
TTM_SCR_BRK	18200
TTM_SCR_HLD	13000
TTM_SCR_SLD	157500
TTM_SCR_ALL	412700
TTM_SCR_S	399650
TTM_SCR_SS	412000
TTM_RAT_ACV	10016

