VERSION	0.00.00	1.03.00
FES_MODE	0
BPM_DEF	138.000	138.000	138.000	138.000
MET_DEF	4	4
RESOLUTION	384
CLK_DEF	384
COMPATIBLE_CODE	MA2

BPM	0	0	138.000
MET	0	0	4	4
MET	10	0	4	5
MET	11	96	4	4

STR	2	0	0
SCR	2	0	0	96	96	3
STR	2	0	7
SCL	2	0	7	96	96	4
STR	3	0	3
SCL	3	0	3	96	96	0
STR	3	0	4
SCR	3	0	4	96	96	7
STR	4	0	7
SI_	4	0	7	96	96	5
STR	4	192	0
SI_	4	192	0	96	96	4
STR	5	0	5
SCR	5	0	5	96	192	2
HLD	6	0	3	192
HLD	6	192	5	192
STR	7	0	7
SCR	7	0	7	96	192	3
HLD	8	0	4	192
HLD	8	192	2	192
STR	9	0	0
SCL	9	0	0	96	192	4
STR	10	0	3
SXR	10	0	3	96	288	0
STR	10	0	4
SXL	10	0	4	96	288	7
TAP	11	96	7
TAP	11	192	5
TAP	11	192	6
TAP	11	288	0
TAP	12	0	1
TAP	12	0	2
TAP	12	96	6
TAP	12	192	4
TAP	12	192	5
TAP	12	288	2
TAP	12	336	3
TAP	13	0	2
STR	13	96	6
SI_	13	96	6	96	96	3
TAP	13	192	2
STR	13	288	2
SI_	13	288	2	96	96	7
TAP	14	0	6
STR	14	96	6
SXR	14	96	6	96	192	2
TAP	15	0	1
TAP	15	96	2
TAP	15	192	1
TAP	15	192	3
TAP	15	288	5
TAP	16	0	4
TAP	16	0	6
TAP	16	96	1
TAP	16	192	0
TAP	16	192	2
TAP	16	288	6
TAP	16	336	7
TAP	17	0	6
STR	17	96	2
SI_	17	96	2	96	96	7
TAP	17	192	6
STR	17	288	6
SI_	17	288	6	96	96	3
TAP	18	0	2
TAP	18	96	1
TAP	18	144	1
TAP	18	192	6
TAP	18	240	6
TAP	18	288	1
BRK	19	0	0
BRK	19	0	7
STR	19	96	5
SCR	19	96	5	96	96	0
STR	19	288	1
SCR	19	288	1	96	96	4
STR	20	96	5
SCR	20	96	5	96	192	2
TAP	21	96	2
TAP	21	144	3
TAP	21	192	4
TAP	21	240	5
TAP	21	336	3
TAP	22	0	4
TAP	22	96	2
TAP	22	96	5
TAP	22	288	3
TAP	23	0	4
STR	23	96	2
SCL	23	96	2	96	96	7
STR	23	288	6
SCL	23	288	6	96	96	3
STR	24	96	2
SCL	24	96	2	96	192	5
TAP	25	96	5
TAP	25	144	4
TAP	25	192	3
TAP	25	240	2
TAP	25	336	4
TAP	26	0	3
STR	26	96	4
SF_	26	96	4	96	96	0
TAP	27	96	6
TAP	27	192	7
TAP	27	288	0
TAP	28	0	1
HLD	28	96	1	96
HLD	28	192	0	96
HLD	28	288	7	96
HLD	29	0	6	96
TAP	29	96	2
TAP	29	192	3
TAP	29	288	4
TAP	30	0	5
HLD	30	96	5	96
HLD	30	192	4	96
HLD	30	288	3	96
TAP	31	0	2
TAP	31	96	6
TAP	31	96	7
TAP	31	192	5
TAP	31	288	4
TAP	31	336	5
TAP	32	0	3
TAP	32	96	0
TAP	32	96	1
TAP	32	192	2
TAP	32	288	3
TAP	32	336	2
TAP	33	0	4
HLD	33	96	4	72
HLD	33	168	5	72
TAP	33	240	6
HLD	33	288	3	72
HLD	33	360	2	72
TAP	34	48	1
TAP	34	96	6
STR	34	192	3
SI_	34	192	3	96	96	0
STR	34	192	4
SI_	34	192	4	96	96	7
BRK	35	96	1
BRK	35	96	6
STR	36	0	2
SCL	36	0	2	96	192	5
TAP	36	0	5
HLD	36	96	4	192
TAP	37	0	2
STR	37	0	5
SCR	37	0	5	96	192	2
HLD	37	96	3	192
TAP	38	0	3
TAP	38	0	4
HLD	38	96	2	96
HLD	38	96	5	96
TAP	38	288	1
TAP	38	288	6
TAP	38	336	0
TAP	39	0	7
TAP	39	48	0
TAP	39	96	1
STR	39	96	6
SCL	39	96	6	96	96	3
TAP	40	0	1
STR	40	96	6
SI_	40	96	6	96	48	4
STR	40	192	0
SI_	40	192	0	96	48	2
HLD	40	288	7	96
STR	41	96	1
SI_	41	96	1	96	48	3
STR	41	192	7
SI_	41	192	7	96	48	5
HLD	41	288	0	96
BRK	42	96	1
BRK	42	96	6
TAP	42	288	5
TAP	42	336	2
TAP	43	0	5
TAP	43	96	6
TAP	43	96	7
TAP	43	192	2
TAP	43	192	5
TAP	43	288	0
TAP	43	288	1
TAP	44	0	2
STR	44	0	5
SCR	44	0	5	96	192	2
HLD	44	96	3	192
STR	45	0	2
SCL	45	0	2	96	192	5
TAP	45	0	5
HLD	45	96	4	192
TAP	46	0	3
TAP	46	0	4
HLD	46	96	2	96
HLD	46	96	5	96
TAP	46	288	1
TAP	46	288	6
TAP	46	336	7
TAP	47	0	0
TAP	47	48	7
STR	47	96	1
SCR	47	96	1	96	96	4
TAP	47	96	6
TAP	48	0	6
STR	48	96	1
SI_	48	96	1	96	48	3
STR	48	192	7
SI_	48	192	7	96	48	5
HLD	48	288	0	96
STR	49	96	6
SI_	49	96	6	96	48	4
STR	49	192	0
SI_	49	192	0	96	48	2
HLD	49	288	7	96
HLD	50	96	1	96
HLD	50	96	6	96
TAP	50	288	4
TAP	50	288	6
TAP	51	0	1
TAP	51	0	3
STR	51	96	0
SXL	51	96	0	96	288	3
STR	51	96	7
SXR	51	96	7	96	288	4
TAP	52	288	1
TAP	52	288	6
TAP	53	0	3
TAP	53	48	4
TAP	53	96	2
TAP	53	96	5
BRK	53	192	1
BRK	53	192	6
TAP	53	288	4
TAP	53	336	3
STR	54	0	2
SCL	54	0	2	96	192	5
TAP	54	0	5
HLD	54	96	4	192
TAP	55	0	4
TAP	55	48	3
HLD	55	96	2	96
HLD	55	96	5	96
TAP	55	288	1
TAP	55	288	6
TAP	55	336	7
TAP	56	0	0
TAP	56	48	7
STR	56	96	1
SCR	56	96	1	96	96	5
TAP	56	96	6
HLD	57	0	6	96
STR	57	96	7
SI_	57	96	7	96	48	3
STR	57	192	6
SI_	57	192	6	96	48	4
STR	57	288	0
SI_	57	288	0	96	48	2
STR	58	96	7
SI_	58	96	7	96	48	5
STR	58	192	1
SI_	58	192	1	96	48	3
STR	58	288	0
SI_	58	288	0	96	48	4
HLD	59	96	3	96
TAP	59	192	4
TAP	59	288	6
TAP	59	336	1
TAP	60	0	6
BRK	60	96	0
BRK	60	96	1
BRK	60	192	2
BRK	60	192	5
BRK	60	288	6
BRK	60	288	7
BST	61	0	2
SCL	61	0	2	96	192	5
BRK	61	0	5
HLD	61	96	4	192
TAP	62	0	2
STR	62	0	5
SCR	62	0	5	96	192	2
HLD	62	96	3	192
TAP	63	0	3
TAP	63	48	4
HLD	63	96	2	96
HLD	63	96	5	96
TAP	63	288	1
TAP	63	288	6
TAP	63	336	0
TAP	64	0	7
TAP	64	48	0
TAP	64	96	1
STR	64	96	6
SCL	64	96	6	96	96	2
HLD	65	0	1	96
STR	65	96	0
SI_	65	96	0	96	48	4
STR	65	192	1
SI_	65	192	1	96	48	3
STR	65	288	7
SI_	65	288	7	96	48	5
STR	66	96	0
SI_	66	96	0	96	48	2
STR	66	192	6
SI_	66	192	6	96	48	4
STR	66	288	7
SI_	66	288	7	96	48	3
TAP	67	96	5
TAP	67	144	4
TAP	67	192	3
TAP	67	192	6
TAP	67	288	2
TAP	67	336	3
TAP	68	0	1
TAP	68	0	4
STR	68	96	3
SXR	68	96	3	96	288	0
STR	68	96	4
SXL	68	96	4	96	288	7

T_REC_TAP	147
T_REC_BRK	15
T_REC_XTP	0
T_REC_HLD	39
T_REC_XHO	0
T_REC_STR	59
T_REC_BST	1
T_REC_XST	0
T_REC_TTP	0
T_REC_THO	0
T_REC_SLD	60
T_REC_ALL	321
T_NUM_TAP	206
T_NUM_BRK	16
T_NUM_HLD	39
T_NUM_SLD	60
T_NUM_ALL	321
T_JUDGE_TAP	222
T_JUDGE_HLD	100
T_JUDGE_SLD	60
T_JUDGE_ALL	382
TTM_EACHPAIRS	53
TTM_SCR_TAP	103000
TTM_SCR_BRK	41600
TTM_SCR_HLD	39000
TTM_SCR_SLD	90000
TTM_SCR_ALL	273600
TTM_SCR_S	263850
TTM_SCR_SS	272000
TTM_RAT_ACV	10058

