VERSION	0.00.00	1.03.00
FES_MODE	0
BPM_DEF	138.000	138.000	138.000	138.000
MET_DEF	4	4
RESOLUTION	384
CLK_DEF	384
COMPATIBLE_CODE	MA2

BPM	0	0	138.000
MET	0	0	4	4
MET	10	0	4	5
MET	11	96	4	4

HLD	2	0	2	192
HLD	2	192	3	192
TAP	3	0	4
HLD	4	0	5	192
HLD	4	192	4	192
TAP	5	0	3
HLD	6	0	2	192
HLD	6	192	3	192
TAP	7	0	4
TAP	7	192	2
TAP	7	192	5
HLD	8	0	5	192
HLD	8	192	4	192
TAP	9	0	3
TAP	9	192	2
TAP	9	192	5
TAP	9	288	1
TAP	9	288	6
TAP	10	0	0
TAP	10	0	7
TAP	11	96	2
TAP	11	192	2
TAP	11	288	3
TAP	12	0	3
TAP	12	96	2
TAP	12	192	3
TAP	12	288	1
TAP	12	288	4
TAP	13	96	5
TAP	13	192	5
TAP	13	288	4
TAP	14	0	4
TAP	14	96	5
TAP	14	192	4
TAP	14	288	3
TAP	14	288	6
TAP	15	96	2
TAP	15	192	2
TAP	15	288	3
TAP	16	0	3
TAP	16	96	2
TAP	16	192	3
TAP	16	288	1
TAP	16	288	4
TAP	17	96	5
TAP	17	192	5
TAP	17	288	4
TAP	18	0	4
TAP	18	96	5
TAP	18	192	4
TAP	18	288	3
TAP	18	288	6
STR	19	96	7
SI_	19	96	7	96	96	4
STR	19	288	0
SI_	19	288	0	96	96	3
TAP	20	96	6
TAP	20	192	7
TAP	20	288	0
TAP	20	288	5
STR	21	96	0
SI_	21	96	0	96	96	3
STR	21	288	7
SI_	21	288	7	96	96	4
TAP	22	96	1
TAP	22	192	0
TAP	22	288	2
TAP	22	288	7
STR	23	96	6
SI_	23	96	6	96	96	3
STR	23	288	7
SI_	23	288	7	96	96	2
TAP	24	96	6
TAP	24	192	7
TAP	24	288	0
TAP	24	288	5
STR	25	96	1
SI_	25	96	1	96	96	4
STR	25	288	0
SI_	25	288	0	96	96	5
TAP	26	96	1
TAP	26	192	0
TAP	26	288	2
TAP	26	288	7
TAP	27	96	0
TAP	27	192	1
TAP	27	288	2
TAP	28	0	3
TAP	28	96	4
TAP	28	96	5
TAP	28	192	4
TAP	28	192	5
TAP	28	288	3
TAP	28	288	6
TAP	29	96	7
TAP	29	192	6
TAP	29	288	5
TAP	30	0	4
TAP	30	96	2
TAP	30	96	3
TAP	30	192	2
TAP	30	192	3
TAP	30	288	1
TAP	30	288	4
TAP	31	96	3
TAP	31	192	2
TAP	31	288	1
TAP	32	0	0
TAP	32	96	6
TAP	32	96	7
TAP	32	192	6
TAP	32	192	7
TAP	32	288	0
TAP	32	288	5
TAP	33	96	4
TAP	33	192	5
TAP	33	288	6
TAP	34	0	7
TAP	34	96	0
TAP	34	96	1
TAP	34	192	0
TAP	34	192	1
TAP	34	288	2
TAP	34	288	7
BRK	35	96	0
BRK	35	96	7
TAP	36	96	5
TAP	36	192	4
TAP	36	192	5
TAP	36	288	2
TAP	37	0	2
TAP	37	0	3
TAP	37	96	5
TAP	37	192	4
TAP	37	192	5
TAP	37	288	3
TAP	37	288	6
TAP	38	96	2
TAP	38	192	2
TAP	38	192	3
TAP	38	288	5
TAP	39	0	4
TAP	39	0	5
TAP	39	96	2
TAP	39	192	2
TAP	39	192	3
TAP	39	288	1
TAP	39	288	4
STR	40	96	0
SI_	40	96	0	96	96	3
STR	40	288	7
SI_	40	288	7	96	96	4
STR	41	96	1
SCR	41	96	1	96	192	6
TAP	42	96	7
TAP	42	192	0
TAP	42	192	6
TAP	42	288	0
TAP	43	0	1
TAP	43	0	7
STR	43	96	0
SCR	43	96	0	96	144	3
STR	43	96	7
SCL	43	96	7	96	144	4
TAP	44	96	1
TAP	44	192	0
TAP	44	192	1
TAP	44	288	6
TAP	45	0	6
TAP	45	0	7
TAP	45	96	1
TAP	45	192	0
TAP	45	192	1
TAP	45	288	2
TAP	45	288	7
TAP	46	96	6
TAP	46	192	6
TAP	46	192	7
TAP	46	288	1
TAP	47	0	0
TAP	47	0	1
TAP	47	96	6
TAP	47	192	6
TAP	47	192	7
TAP	47	288	0
TAP	47	288	5
STR	48	96	7
SI_	48	96	7	96	96	4
STR	48	288	0
SI_	48	288	0	96	96	3
STR	49	96	6
SCL	49	96	6	96	192	1
TAP	50	96	7
TAP	50	192	0
TAP	50	192	6
TAP	50	288	0
TAP	51	0	1
TAP	51	0	7
STR	51	96	0
SCR	51	96	0	96	144	3
STR	51	96	7
SCL	51	96	7	96	144	4
TAP	53	96	3
TAP	53	96	4
BRK	53	192	1
BRK	53	192	6
TAP	54	96	0
TAP	54	96	7
TAP	54	192	1
TAP	54	192	6
TAP	54	288	2
TAP	54	288	5
TAP	55	0	3
TAP	55	0	4
TAP	55	96	5
TAP	55	192	4
TAP	55	192	6
TAP	55	288	2
TAP	56	0	1
TAP	56	0	3
STR	56	96	3
SCL	56	96	3	96	144	0
STR	56	96	4
SCR	56	96	4	96	144	7
TAP	57	96	2
TAP	57	96	3
TAP	57	192	2
TAP	57	192	3
TAP	57	288	1
TAP	57	288	4
TAP	58	0	1
TAP	58	0	4
TAP	58	96	4
TAP	58	96	5
TAP	58	192	4
TAP	58	192	5
TAP	58	288	3
TAP	58	288	6
TAP	59	0	3
TAP	59	0	6
STR	59	96	4
SI_	59	96	4	96	96	7
STR	59	288	3
SI_	59	288	3	96	96	0
STR	60	96	5
SCR	60	96	5	96	192	2
HLD	61	96	5	96
TAP	61	192	4
HLD	61	288	2	96
TAP	62	0	3
HLD	62	96	5	96
TAP	62	192	4
TAP	62	288	2
TAP	62	288	7
HLD	63	96	2	96
TAP	63	192	3
HLD	63	288	5	96
TAP	64	0	4
HLD	64	96	2	96
TAP	64	192	3
TAP	64	288	0
TAP	64	288	5
TAP	65	96	4
TAP	65	96	5
TAP	65	192	4
TAP	65	192	5
TAP	65	288	3
TAP	65	288	6
TAP	66	0	3
TAP	66	0	6
TAP	66	96	2
TAP	66	96	3
TAP	66	192	2
TAP	66	192	3
TAP	66	288	1
TAP	66	288	4
TAP	67	0	1
TAP	67	0	4
STR	67	96	3
SI_	67	96	3	96	96	0
STR	67	288	4
SI_	67	288	4	96	96	7
STR	68	96	3
SCL	68	96	3	96	672	4

T_REC_TAP	214
T_REC_BRK	4
T_REC_XTP	0
T_REC_HLD	14
T_REC_XHO	0
T_REC_STR	26
T_REC_BST	0
T_REC_XST	0
T_REC_TTP	0
T_REC_THO	0
T_REC_SLD	26
T_REC_ALL	284
T_NUM_TAP	240
T_NUM_BRK	4
T_NUM_HLD	14
T_NUM_SLD	26
T_NUM_ALL	284
T_JUDGE_TAP	244
T_JUDGE_HLD	44
T_JUDGE_SLD	26
T_JUDGE_ALL	314
TTM_EACHPAIRS	74
TTM_SCR_TAP	120000
TTM_SCR_BRK	10400
TTM_SCR_HLD	14000
TTM_SCR_SLD	39000
TTM_SCR_ALL	183400
TTM_SCR_S	177550
TTM_SCR_SS	183000
TTM_RAT_ACV	10021

