VERSION	0.00.00	1.03.00
FES_MODE	0
BPM_DEF	138.000	138.000	138.000	138.000
MET_DEF	4	4
RESOLUTION	384
CLK_DEF	384
COMPATIBLE_CODE	MA2

BPM	0	0	138.000
MET	0	0	4	4
MET	11	0	4	1
MET	11	96	4	4

TAP	2	0	0
TAP	2	192	0
TAP	3	0	1
TAP	3	192	1
TAP	4	0	2
TAP	4	192	2
TAP	4	288	2
HLD	5	0	3	192
HLD	6	0	4	192
HLD	7	0	3	192
TAP	8	0	3
TAP	8	0	4
TAP	8	192	3
TAP	8	192	4
STR	9	0	3
SI_	9	0	3	96	288	0
STR	9	0	4
SI_	9	0	4	96	288	7
TAP	11	96	7
TAP	11	288	7
TAP	12	96	6
TAP	12	288	6
TAP	13	96	5
TAP	13	288	5
TAP	14	96	4
TAP	14	288	4
TAP	15	96	3
TAP	15	288	3
TAP	16	96	2
TAP	16	288	2
TAP	17	96	1
TAP	17	288	1
TAP	18	96	0
BRK	18	288	0
TAP	19	96	0
TAP	19	96	1
TAP	19	288	0
TAP	19	288	1
TAP	20	96	6
TAP	20	96	7
TAP	20	288	6
TAP	20	288	7
HLD	21	96	0	384
HLD	21	96	7	384
TAP	22	288	1
TAP	22	288	6
TAP	23	96	4
TAP	23	96	5
TAP	23	288	4
TAP	23	288	5
TAP	24	96	2
TAP	24	96	3
TAP	24	288	2
TAP	24	288	3
TAP	25	96	4
TAP	25	192	4
TAP	25	288	3
TAP	26	0	3
TAP	26	96	3
TAP	26	96	4
TAP	26	288	2
TAP	26	288	5
TAP	27	96	1
TAP	27	288	1
TAP	28	96	0
TAP	28	288	0
TAP	29	96	7
TAP	29	192	7
TAP	29	288	7
HLD	30	96	6	192
TAP	31	96	5
TAP	31	288	5
TAP	32	96	4
TAP	32	288	4
TAP	33	96	3
TAP	33	192	3
TAP	33	288	3
HLD	34	96	2	192
HLD	34	96	3	192
BRK	35	96	1
TAP	36	96	0
TAP	36	192	0
TAP	36	288	0
TAP	37	96	1
TAP	37	192	1
TAP	37	288	1
TAP	38	96	2
TAP	38	192	2
TAP	38	288	2
HLD	39	96	3	192
HLD	39	96	4	192
TAP	40	96	4
TAP	40	192	4
TAP	40	288	4
TAP	41	96	5
TAP	41	192	5
TAP	41	288	5
TAP	42	96	6
TAP	42	192	6
TAP	42	288	6
HLD	43	96	0	192
HLD	43	96	7	192
TAP	44	96	7
TAP	44	192	7
TAP	44	288	7
TAP	45	96	6
TAP	45	192	6
TAP	45	288	6
TAP	46	96	5
TAP	46	192	5
TAP	46	288	5
HLD	47	96	3	192
HLD	47	96	4	192
TAP	48	96	3
TAP	48	192	3
TAP	48	288	3
TAP	49	96	2
TAP	49	192	2
TAP	49	288	2
TAP	50	96	1
TAP	50	192	1
TAP	50	288	1
STR	51	96	0
SI_	51	96	0	96	288	3
STR	51	96	7
SI_	51	96	7	96	288	4
TAP	53	96	4
TAP	53	192	4
TAP	53	288	4
TAP	54	96	5
TAP	54	192	5
TAP	54	288	5
TAP	55	96	6
TAP	55	192	6
TAP	55	288	6
HLD	56	96	0	192
HLD	56	96	7	192
TAP	57	96	0
TAP	57	192	0
TAP	57	288	0
TAP	58	96	1
TAP	58	192	1
TAP	58	288	1
TAP	59	96	2
TAP	59	192	2
TAP	59	288	2
HLD	60	96	3	192
HLD	60	96	4	192
TAP	61	96	3
TAP	61	192	3
TAP	61	288	3
TAP	62	96	2
TAP	62	192	2
TAP	62	288	2
TAP	63	96	1
TAP	63	192	1
TAP	63	288	1
HLD	64	96	0	192
HLD	64	96	7	192
TAP	65	96	7
TAP	65	192	7
TAP	65	288	7
TAP	66	96	6
TAP	66	192	6
TAP	66	288	6
TAP	67	96	5
TAP	67	192	5
TAP	67	288	5
HLD	68	96	3	1536
HLD	68	96	4	1536

T_REC_TAP	138
T_REC_BRK	2
T_REC_XTP	0
T_REC_HLD	22
T_REC_XHO	0
T_REC_STR	4
T_REC_BST	0
T_REC_XST	0
T_REC_TTP	0
T_REC_THO	0
T_REC_SLD	4
T_REC_ALL	170
T_NUM_TAP	142
T_NUM_BRK	2
T_NUM_HLD	22
T_NUM_SLD	4
T_NUM_ALL	170
T_JUDGE_TAP	144
T_JUDGE_HLD	152
T_JUDGE_SLD	4
T_JUDGE_ALL	300
TTM_EACHPAIRS	24
TTM_SCR_TAP	71000
TTM_SCR_BRK	5200
TTM_SCR_HLD	22000
TTM_SCR_SLD	6000
TTM_SCR_ALL	104200
TTM_SCR_S	100900
TTM_SCR_SS	104000
TTM_RAT_ACV	10019

