VERSION	0.00.00	1.03.00
FES_MODE	0
BPM_DEF	144.000	144.000	144.000	144.000
MET_DEF	4	4
RESOLUTION	384
CLK_DEF	384
COMPATIBLE_CODE	MA2

BPM	0	0	144.000
MET	0	0	4	4
MET	31	0	8	9
MET	32	48	4	4
MET	33	48	8	6
MET	33	336	4	4
MET	34	336	8	9
MET	37	48	4	4
MET	38	48	4	7
MET	43	144	4	4
MET	45	144	4	7
MET	50	240	4	4

TAP	1	0	3
TAP	1	96	3
TAP	1	192	3
TAP	1	240	5
TAP	1	256	4
TAP	1	272	5
TAP	1	288	2
TAP	2	0	7
TAP	2	72	5
TAP	2	96	5
TAP	2	144	0
TAP	2	216	2
TAP	2	240	2
TAP	2	288	7
TAP	3	0	4
TAP	3	96	4
TAP	3	192	4
TAP	3	240	2
TAP	3	256	3
TAP	3	272	2
TAP	3	288	5
TAP	4	0	0
TAP	4	72	2
TAP	4	96	2
TAP	4	144	7
TAP	4	216	5
TAP	4	240	5
TAP	4	288	0
TAP	5	0	6
TAP	5	48	2
TAP	5	72	4
TAP	5	96	2
TAP	5	144	5
TAP	5	168	3
TAP	5	192	5
TAP	5	240	1
TAP	5	264	3
TAP	5	288	1
TAP	5	336	6
TAP	5	360	4
TAP	6	0	6
TAP	6	72	3
TAP	6	96	3
TAP	6	144	1
TAP	6	216	4
TAP	6	240	4
TAP	6	288	6
TAP	7	0	1
TAP	7	48	5
TAP	7	72	3
TAP	7	96	5
TAP	7	144	2
TAP	7	168	4
TAP	7	192	2
TAP	7	240	6
TAP	7	264	4
TAP	7	288	6
TAP	7	336	1
TAP	7	360	3
TAP	8	0	1
TAP	8	72	4
TAP	8	96	4
TAP	8	144	6
TAP	8	216	3
TAP	8	240	3
TAP	8	288	1
TAP	9	0	6
TAP	9	24	6
TAP	9	48	6
TAP	9	72	6
TAP	9	144	1
TAP	9	168	1
TAP	9	192	1
TAP	9	216	1
TAP	9	288	5
TAP	9	312	2
TAP	10	0	7
TAP	10	24	7
TAP	10	48	7
TAP	10	72	7
TAP	10	144	0
TAP	10	168	0
TAP	10	192	0
TAP	10	216	0
TAP	10	288	3
TAP	10	288	7
STR	10	312	0
SCL	10	312	0	96	168	3
STR	10	312	4
SCL	10	312	4	96	168	7
TAP	11	240	5
TAP	11	264	5
BRK	11	288	1
TAP	12	0	6
TAP	12	24	7
TAP	12	72	7
TAP	12	96	5
TAP	12	144	5
TAP	12	168	0
TAP	12	216	0
TAP	12	240	6
TAP	12	288	2
TAP	12	336	7
TAP	13	0	1
TAP	13	24	0
TAP	13	72	0
TAP	13	96	2
TAP	13	144	2
TAP	13	168	7
TAP	13	216	7
TAP	13	240	1
TAP	13	288	6
TAP	13	336	0
TAP	14	0	5
TAP	14	24	4
TAP	14	72	4
TAP	14	96	6
TAP	14	144	6
TAP	14	168	3
TAP	14	216	3
TAP	14	240	5
TAP	14	288	1
TAP	14	336	4
TAP	15	0	2
TAP	15	24	3
TAP	15	72	3
TAP	15	96	1
TAP	15	144	1
TAP	15	168	4
TAP	15	216	4
TAP	15	240	2
TAP	15	288	5
TAP	15	336	3
TAP	16	0	6
TAP	16	24	0
TAP	16	72	0
TAP	16	96	7
TAP	16	144	7
TAP	16	168	1
TAP	16	216	1
TAP	16	240	5
TAP	16	288	3
TAP	16	336	4
TAP	17	0	1
TAP	17	72	5
TAP	17	96	4
TAP	17	144	6
TAP	17	216	2
TAP	17	240	3
TAP	17	288	0
TAP	17	336	7
TAP	18	0	1
TAP	18	24	1
TAP	18	48	1
TAP	18	72	1
TAP	18	144	6
TAP	18	168	6
TAP	18	192	6
TAP	18	216	6
TAP	18	288	3
TAP	18	312	3
TAP	18	336	4
TAP	18	360	4
TAP	19	0	1
TAP	19	24	1
TAP	19	48	1
TAP	19	72	1
TAP	19	144	6
TAP	19	168	6
TAP	19	192	6
TAP	19	216	6
TAP	19	288	3
TAP	19	312	3
TAP	19	336	4
TAP	19	360	4
TAP	20	0	1
TAP	20	24	1
TAP	20	48	1
BRK	20	72	1
TAP	20	144	6
TAP	20	168	6
TAP	20	192	6
BRK	20	216	6
TAP	20	288	3
TAP	20	312	3
TAP	20	336	4
TAP	20	360	4
TAP	21	0	2
TAP	21	96	5
TAP	21	192	1
TAP	21	288	7
TAP	22	0	1
TAP	22	24	2
TAP	22	48	3
TAP	22	72	4
TAP	22	96	3
TAP	22	120	2
TAP	22	144	1
TAP	22	168	2
TAP	22	192	3
TAP	22	216	4
TAP	22	240	3
TAP	22	264	2
TAP	22	288	1
TAP	22	312	2
TAP	22	336	3
TAP	22	360	4
TAP	23	0	3
TAP	23	24	2
TAP	23	48	1
TAP	23	72	2
TAP	23	96	3
TAP	23	120	4
TAP	23	144	3
TAP	23	168	2
TAP	23	192	1
TAP	23	216	2
TAP	23	240	3
TAP	23	264	4
TAP	23	288	5
TAP	24	0	6
TAP	24	24	5
TAP	24	48	4
TAP	24	72	3
TAP	24	96	4
TAP	24	120	5
TAP	24	144	6
TAP	24	168	5
TAP	24	192	4
TAP	24	216	3
TAP	24	240	4
TAP	24	264	5
TAP	24	288	6
TAP	24	312	5
TAP	24	336	4
TAP	24	360	3
TAP	25	0	4
TAP	25	24	5
TAP	25	48	6
TAP	25	72	5
TAP	25	96	4
TAP	25	120	3
TAP	25	144	4
TAP	25	168	5
TAP	25	192	6
TAP	25	216	5
TAP	25	240	4
TAP	25	264	3
TAP	25	288	2
TAP	26	0	1
TAP	26	24	2
TAP	26	48	3
TAP	26	72	5
TAP	26	96	4
TAP	26	120	3
TAP	26	144	2
TAP	26	168	3
TAP	26	192	4
TAP	26	216	6
TAP	26	240	5
TAP	26	264	4
TAP	26	288	1
TAP	26	312	2
TAP	26	336	3
TAP	26	360	5
TAP	27	0	4
TAP	27	24	3
TAP	27	48	2
TAP	27	72	3
TAP	27	96	4
TAP	27	120	6
TAP	27	144	5
TAP	27	168	4
TAP	27	192	1
TAP	27	216	2
TAP	27	240	3
TAP	27	264	4
TAP	27	288	5
TAP	27	336	7
TAP	28	48	7
TAP	28	64	6
TAP	28	80	5
TAP	28	96	4
TAP	28	144	0
TAP	28	240	0
TAP	28	256	1
TAP	28	272	2
TAP	28	288	3
TAP	28	336	4
TAP	29	0	2
TAP	29	72	6
TAP	29	144	1
TAP	29	240	7
TAP	29	264	0
TAP	29	288	6
TAP	29	312	1
TAP	29	336	5
TAP	29	360	2
TAP	30	0	4
TAP	30	24	4
TAP	30	48	4
TAP	30	72	1
TAP	30	144	2
TAP	30	168	2
TAP	30	192	2
TAP	30	216	7
TAP	30	288	6
TAP	30	312	6
TAP	30	336	1
TAP	30	360	1
TAP	31	0	3
TAP	31	24	3
TAP	31	48	3
TAP	31	72	6
TAP	31	144	5
TAP	31	168	5
TAP	31	192	5
TAP	31	216	0
TAP	31	288	2
TAP	31	312	2
TAP	31	336	6
TAP	31	360	6
TAP	32	0	0
TAP	32	48	4
TAP	32	72	4
TAP	32	96	4
TAP	32	120	1
TAP	32	192	2
TAP	32	216	2
TAP	32	240	2
TAP	32	264	7
TAP	32	336	6
TAP	32	360	6
TAP	33	0	1
TAP	33	24	1
TAP	33	48	7
TAP	33	144	5
TAP	33	156	4
TAP	33	168	3
TAP	33	180	2
TAP	33	192	1
TAP	33	240	2
TAP	33	252	3
TAP	33	264	4
TAP	33	276	5
TAP	33	288	6
TAP	33	336	3
TAP	33	360	3
TAP	34	0	3
TAP	34	24	6
TAP	34	96	5
TAP	34	120	5
TAP	34	144	5
TAP	34	168	0
TAP	34	240	1
TAP	34	264	1
TAP	34	288	6
TAP	34	312	6
TAP	34	336	4
TAP	34	360	4
TAP	35	0	4
TAP	35	24	1
TAP	35	96	2
TAP	35	120	2
TAP	35	144	2
TAP	35	168	7
TAP	35	240	5
TAP	35	264	5
TAP	35	288	1
TAP	35	312	1
TAP	35	336	7
TAP	36	0	3
TAP	36	24	3
TAP	36	48	3
TAP	36	72	6
TAP	36	144	5
TAP	36	168	5
TAP	36	192	5
TAP	36	216	0
TAP	36	288	1
TAP	36	312	1
TAP	36	336	6
TAP	36	360	6
TAP	37	0	0
TAP	37	48	7
TAP	37	144	7
TAP	37	156	0
TAP	37	168	1
TAP	37	180	2
TAP	37	192	3
TAP	37	240	0
TAP	37	252	7
TAP	37	264	6
TAP	37	276	5
TAP	37	288	4
TAP	37	336	6
TAP	38	0	2
TAP	38	24	2
TAP	38	48	5
TAP	38	96	7
TAP	38	120	3
HLD	38	168	1	72
TAP	38	192	0
TAP	38	204	7
TAP	38	216	6
TAP	38	228	5
TAP	38	240	4
TAP	38	288	2
TAP	38	336	2
TAP	39	0	0
TAP	39	24	4
HLD	39	72	6	72
TAP	39	96	7
TAP	39	108	0
TAP	39	120	1
TAP	39	132	2
TAP	39	144	3
TAP	39	192	4
TAP	39	240	4
TAP	39	264	3
TAP	39	288	5
TAP	39	336	2
TAP	40	0	0
TAP	40	24	4
HLD	40	72	6	72
TAP	40	96	7
TAP	40	108	0
TAP	40	120	1
TAP	40	132	2
TAP	40	144	3
TAP	40	192	5
TAP	40	240	5
TAP	40	288	7
TAP	40	312	3
HLD	40	360	1	72
TAP	41	0	0
TAP	41	12	7
TAP	41	24	6
TAP	41	36	5
TAP	41	48	4
TAP	41	96	3
TAP	41	144	3
TAP	41	168	4
TAP	41	192	2
TAP	41	240	5
TAP	41	288	7
TAP	41	312	3
HLD	41	360	1	72
TAP	42	0	0
TAP	42	12	7
TAP	42	24	6
TAP	42	36	5
TAP	42	48	4
TAP	42	96	2
TAP	42	144	2
TAP	42	192	0
TAP	42	216	4
HLD	42	264	6	72
TAP	42	288	7
TAP	42	300	0
TAP	42	312	1
TAP	42	324	2
TAP	42	336	3
TAP	43	0	4
TAP	43	48	4
TAP	43	72	3
TAP	43	96	5
TAP	43	144	0
TAP	43	192	1
TAP	43	216	7
TAP	43	264	6
TAP	43	288	0
TAP	43	336	5
TAP	43	360	7
TAP	44	0	5
TAP	44	24	1
TAP	44	72	6
TAP	44	96	0
TAP	44	144	7
TAP	44	192	6
TAP	44	216	0
TAP	44	264	1
TAP	44	288	7
TAP	44	336	2
TAP	44	360	0
TAP	45	0	2
TAP	45	24	6
TAP	45	72	1
TAP	45	96	7
TAP	45	144	0
TAP	45	168	6
TAP	45	192	1
TAP	45	216	5
TAP	45	240	2
TAP	45	264	4
TAP	45	288	2
TAP	45	312	0
TAP	45	336	3
TAP	45	360	7
TAP	46	0	4
TAP	46	24	6
TAP	46	48	1
TAP	46	72	7
TAP	46	96	2
TAP	46	120	6
TAP	46	144	3
TAP	46	168	5
TAP	46	192	7
TAP	46	216	5
TAP	46	240	0
TAP	46	264	4
TAP	46	288	1
TAP	46	312	3
TAP	46	336	2
TAP	47	0	2
TAP	47	48	7
TAP	47	72	1
TAP	47	96	6
TAP	47	120	2
TAP	47	144	5
TAP	47	168	3
TAP	47	192	5
TAP	47	216	7
TAP	47	240	4
TAP	47	264	0
TAP	47	288	3
TAP	47	312	1
TAP	47	336	6
TAP	47	360	0
TAP	48	0	5
TAP	48	24	1
TAP	48	48	4
TAP	48	72	2
TAP	48	96	0
TAP	48	120	2
TAP	48	144	7
TAP	48	168	3
TAP	48	192	6
TAP	48	216	4
TAP	48	240	5
TAP	48	288	5
TAP	48	336	2
TAP	48	360	4
TAP	49	0	1
TAP	49	24	5
TAP	49	48	0
TAP	49	72	6
TAP	49	96	3
TAP	49	120	5
TAP	49	144	2
TAP	49	168	6
TAP	49	192	1
TAP	49	216	7
TAP	49	240	1
TAP	49	264	3
TAP	49	288	0
TAP	49	312	4
TAP	49	336	7
TAP	49	360	5
TAP	50	0	4
TAP	50	24	6
TAP	50	48	3
TAP	50	72	7
TAP	50	96	2
TAP	50	120	0
TAP	50	144	1
TAP	50	192	1
TAP	50	240	0
TAP	50	264	2
TAP	50	288	7
TAP	50	312	3
TAP	50	336	6
TAP	50	360	4
TAP	51	0	5
TAP	51	24	5
TAP	51	48	7
TAP	51	72	5
TAP	51	96	0
TAP	51	120	4
TAP	51	144	1
TAP	51	168	3
TAP	51	192	2
TAP	51	216	2
TAP	51	240	0
TAP	51	264	2
TAP	51	288	7
TAP	51	312	3
TAP	51	336	6
TAP	51	360	4
TAP	52	0	5
TAP	52	24	5
TAP	52	48	7
TAP	52	72	5
TAP	52	96	0
TAP	52	120	4
TAP	52	144	1
TAP	52	168	3
TAP	52	192	2
TAP	52	216	2
TAP	52	240	0
TAP	52	264	2
TAP	52	288	7
TAP	52	312	3
TAP	52	336	6
TAP	52	360	4
TAP	53	0	5
TAP	53	24	5
TAP	53	48	7
TAP	53	72	5
TAP	53	96	0
TAP	53	120	4
TAP	53	144	1
TAP	53	168	3
TAP	53	192	2
TAP	53	216	2
TAP	53	240	6
TAP	53	264	6
TAP	53	288	6
TAP	53	312	6
TAP	53	336	7
TAP	53	360	0
TAP	54	0	1
TAP	54	24	1
TAP	54	48	1
TAP	54	72	1
TAP	54	96	0
TAP	54	120	7
TAP	54	144	6
BRK	54	168	1
TAP	54	240	6
TAP	54	264	0
TAP	54	288	6
TAP	54	312	2
TAP	54	336	6
TAP	54	360	4
TAP	55	0	6
TAP	55	24	1
TAP	55	48	3
TAP	55	72	1
TAP	55	96	5
TAP	55	120	1
TAP	55	144	7
TAP	55	168	1
TAP	55	192	5
TAP	55	216	2
TAP	55	240	6
TAP	55	312	6
TAP	55	320	5
TAP	55	328	4
TAP	55	336	3
TAP	56	0	1
TAP	56	72	1
TAP	56	80	2
TAP	56	88	3
TAP	56	96	4
TAP	56	144	6
TAP	56	240	1
TAP	56	264	7
TAP	56	288	1
TAP	56	312	5
TAP	56	336	1
TAP	56	360	3
TAP	57	0	1
TAP	57	24	6
TAP	57	48	4
TAP	57	72	6
TAP	57	96	2
TAP	57	120	6
TAP	57	144	0
TAP	57	168	6
TAP	57	192	2
TAP	57	216	5
TAP	57	240	1
TAP	57	312	1
TAP	57	320	2
TAP	57	328	3
TAP	57	336	4
TAP	58	0	6
TAP	58	72	6
TAP	58	80	5
TAP	58	88	4
TAP	58	96	3
TAP	58	144	1
TAP	58	240	7
TAP	58	264	1
TAP	58	288	7
TAP	58	312	3
TAP	58	336	7
TAP	58	360	5
TAP	59	0	7
TAP	59	24	0
TAP	59	48	2
TAP	59	72	0
TAP	59	96	4
TAP	59	120	0
TAP	59	144	6
TAP	59	168	0
TAP	59	192	7
TAP	59	216	1
TAP	59	240	0
TAP	59	312	0
TAP	59	320	7
TAP	59	328	6
TAP	59	336	5
TAP	60	0	7
TAP	60	72	7
TAP	60	80	0
TAP	60	88	1
TAP	60	96	2
TAP	60	144	7
TAP	60	240	0
TAP	60	264	6
TAP	60	288	0
TAP	60	312	4
TAP	60	336	0
TAP	60	360	2
TAP	61	0	0
TAP	61	24	7
TAP	61	48	5
TAP	61	72	7
TAP	61	96	3
TAP	61	120	7
TAP	61	144	1
TAP	61	168	7
TAP	61	192	0
TAP	61	216	6
TAP	62	96	3
TAP	62	112	4
TAP	62	128	2
TAP	62	144	5
TAP	62	240	2
TAP	62	256	4
TAP	62	272	2
TAP	62	288	5
TAP	62	304	3
TAP	62	320	5
TAP	62	336	4
TAP	62	352	5
TAP	62	368	3
TAP	63	0	4
TAP	63	16	2
TAP	63	32	3
TAP	63	48	2
TAP	63	64	4
TAP	63	80	3
TAP	63	96	5
TAP	63	112	3
TAP	63	128	4
TAP	63	144	1
TAP	63	168	3
TAP	63	192	4
BRK	63	216	6

T_REC_TAP	737
T_REC_BRK	5
T_REC_XTP	0
T_REC_HLD	6
T_REC_XHO	0
T_REC_STR	2
T_REC_BST	0
T_REC_XST	0
T_REC_TTP	0
T_REC_THO	0
T_REC_SLD	2
T_REC_ALL	752
T_NUM_TAP	739
T_NUM_BRK	5
T_NUM_HLD	6
T_NUM_SLD	2
T_NUM_ALL	752
T_JUDGE_TAP	744
T_JUDGE_HLD	12
T_JUDGE_SLD	2
T_JUDGE_ALL	758
TTM_EACHPAIRS	2
TTM_SCR_TAP	369500
TTM_SCR_BRK	13000
TTM_SCR_HLD	6000
TTM_SCR_SLD	3000
TTM_SCR_ALL	391500
TTM_SCR_S	379300
TTM_SCR_SS	391000
TTM_RAT_ACV	10012

