VERSION	0.00.00	1.03.00
FES_MODE	0
BPM_DEF	144.000	144.000	144.000	144.000
MET_DEF	4	4
RESOLUTION	384
CLK_DEF	384
COMPATIBLE_CODE	MA2

BPM	0	0	144.000
MET	0	0	4	4
MET	31	0	8	9
MET	32	48	4	4
MET	33	48	8	6
MET	33	336	4	4
MET	34	336	8	9
MET	37	48	4	4
MET	38	48	4	7
MET	43	144	4	4
MET	45	144	4	7
MET	50	240	4	4

TAP	1	0	2
TAP	1	48	3
TAP	1	96	1
TAP	1	96	4
TAP	1	192	1
TAP	1	240	0
TAP	1	288	2
TAP	1	288	7
TAP	2	0	0
TAP	2	0	5
TAP	2	72	2
TAP	2	72	7
TAP	2	144	0
TAP	2	144	5
TAP	2	240	0
TAP	2	240	7
TAP	2	288	1
TAP	2	288	6
TAP	3	0	5
TAP	3	48	4
TAP	3	96	3
TAP	3	96	6
TAP	3	192	6
TAP	3	240	7
TAP	3	288	0
TAP	3	288	5
TAP	4	0	2
TAP	4	0	7
TAP	4	72	0
TAP	4	72	5
TAP	4	144	2
TAP	4	144	7
TAP	4	240	6
TAP	4	240	7
TAP	4	288	0
TAP	4	288	5
TAP	5	0	1
TAP	5	48	0
TAP	5	96	1
TAP	5	144	0
TAP	5	192	2
TAP	5	240	3
TAP	5	288	1
TAP	5	288	4
TAP	6	0	3
TAP	6	0	6
TAP	6	72	1
TAP	6	72	4
TAP	6	144	3
TAP	6	144	6
TAP	6	240	3
TAP	6	240	4
TAP	6	288	2
TAP	6	288	5
TAP	7	0	6
TAP	7	48	7
TAP	7	96	6
TAP	7	144	7
TAP	7	192	5
TAP	7	240	4
TAP	7	288	3
TAP	7	288	6
TAP	8	0	1
TAP	8	0	4
TAP	8	72	3
TAP	8	72	6
TAP	8	144	1
TAP	8	144	4
TAP	8	240	3
TAP	8	240	4
TAP	8	288	2
TAP	8	288	5
TAP	9	0	2
TAP	9	24	3
TAP	9	48	2
TAP	9	72	3
TAP	9	144	6
TAP	9	144	7
TAP	9	192	0
TAP	9	192	5
TAP	9	288	2
TAP	9	288	6
TAP	10	0	5
TAP	10	24	4
TAP	10	48	5
TAP	10	72	4
TAP	10	144	0
TAP	10	144	1
TAP	10	192	2
TAP	10	192	7
STR	10	288	3
SUR	10	288	3	96	288	4
STR	10	288	4
SCR	10	288	4	96	288	3
TAP	12	0	2
TAP	12	24	3
TAP	12	72	5
TAP	12	96	4
TAP	12	144	2
TAP	12	168	3
TAP	12	216	5
TAP	12	240	4
TAP	12	288	2
TAP	12	288	7
TAP	13	0	5
TAP	13	24	3
TAP	13	72	2
TAP	13	96	4
TAP	13	144	5
TAP	13	168	3
TAP	13	216	2
TAP	13	240	4
TAP	13	288	0
TAP	13	288	5
TAP	14	0	1
TAP	14	24	3
TAP	14	72	6
TAP	14	96	4
TAP	14	144	1
TAP	14	168	3
TAP	14	216	6
TAP	14	240	4
TAP	14	288	2
TAP	14	288	7
TAP	15	0	4
TAP	15	0	5
TAP	15	72	0
TAP	15	72	7
TAP	15	144	2
TAP	15	144	3
TAP	15	216	0
TAP	15	216	6
TAP	15	288	1
TAP	15	288	7
TAP	16	0	1
TAP	16	24	0
TAP	16	72	6
TAP	16	96	7
TAP	16	144	1
TAP	16	168	0
TAP	16	216	6
TAP	16	240	7
TAP	16	288	1
TAP	16	288	4
TAP	17	0	6
TAP	17	24	0
TAP	17	72	1
TAP	17	96	7
TAP	17	144	6
TAP	17	168	0
TAP	17	216	1
TAP	17	240	7
TAP	17	288	3
TAP	17	288	6
TAP	18	0	1
TAP	18	24	0
TAP	18	48	1
TAP	18	72	0
TAP	18	144	4
TAP	18	144	5
TAP	18	192	2
TAP	18	192	7
TAP	18	288	0
TAP	18	288	5
TAP	19	0	6
TAP	19	24	7
TAP	19	48	6
TAP	19	72	7
TAP	19	144	2
TAP	19	144	3
TAP	19	192	0
TAP	19	192	5
TAP	19	288	2
TAP	19	288	7
TAP	20	0	2
TAP	20	24	3
TAP	20	48	1
TAP	20	72	4
TAP	20	144	5
TAP	20	168	4
TAP	20	192	6
TAP	20	216	3
TAP	20	288	0
TAP	20	288	7
TAP	21	0	2
TAP	21	0	5
BRK	21	96	3
BRK	21	192	5
BRK	21	288	0
STR	22	0	1
SI_	22	0	1	96	48	4
TAP	22	48	1
STR	22	96	5
SI_	22	96	5	96	48	0
TAP	22	144	5
STR	22	192	1
SI_	22	192	1	96	48	4
TAP	22	240	1
STR	22	288	5
SI_	22	288	5	96	48	0
TAP	22	336	5
STR	23	0	2
SXL	23	0	2	96	144	7
TAP	23	48	2
TAP	23	288	0
TAP	23	288	5
STR	24	0	6
SI_	24	0	6	96	48	3
TAP	24	48	6
STR	24	96	2
SI_	24	96	2	96	48	7
TAP	24	144	2
STR	24	192	6
SI_	24	192	6	96	48	3
TAP	24	240	6
STR	24	288	2
SI_	24	288	2	96	48	7
TAP	24	336	2
STR	25	0	5
SXR	25	0	5	96	144	0
TAP	25	48	5
TAP	25	288	2
TAP	25	288	7
STR	26	0	1
SCR	26	0	1	96	48	4
TAP	26	48	1
STR	26	96	5
SCR	26	96	5	96	48	0
TAP	26	144	5
STR	26	192	1
SCR	26	192	1	96	48	4
TAP	26	240	1
STR	26	288	5
SCR	26	288	5	96	48	0
TAP	26	336	5
STR	27	0	1
SXL	27	0	1	96	144	4
TAP	27	48	1
TAP	27	288	0
TAP	27	288	5
HLD	27	336	0	96
TAP	27	336	5
TAP	28	48	7
TAP	28	96	7
TAP	28	144	0
TAP	28	144	6
TAP	28	240	4
TAP	28	240	5
TAP	28	288	4
TAP	28	288	5
TAP	29	0	5
TAP	29	0	6
TAP	29	72	1
TAP	29	72	2
TAP	29	144	0
TAP	29	144	4
TAP	29	240	1
TAP	29	240	6
TAP	29	288	1
TAP	29	288	6
TAP	30	0	4
TAP	30	72	0
TAP	30	72	1
TAP	30	144	3
TAP	30	240	0
TAP	30	240	6
TAP	30	288	1
TAP	30	288	7
TAP	30	336	0
TAP	30	336	6
TAP	31	0	3
TAP	31	72	6
TAP	31	72	7
TAP	31	144	4
TAP	31	240	1
TAP	31	240	7
TAP	31	288	0
TAP	31	288	6
TAP	31	336	1
TAP	31	336	7
TAP	32	0	0
TAP	32	0	6
TAP	32	48	4
TAP	32	120	0
TAP	32	120	1
TAP	32	192	3
TAP	32	288	0
TAP	32	288	6
TAP	32	336	1
TAP	32	336	7
TAP	33	0	0
TAP	33	0	6
STR	33	48	7
SCL	33	48	7	96	144	1
TAP	33	336	0
TAP	34	24	2
TAP	34	24	3
TAP	34	96	7
TAP	34	192	2
TAP	34	192	4
TAP	34	240	3
TAP	34	240	5
TAP	34	288	2
TAP	34	288	4
TAP	34	336	7
TAP	35	24	4
TAP	35	24	5
TAP	35	96	0
TAP	35	192	3
TAP	35	192	5
TAP	35	240	2
TAP	35	240	4
TAP	35	288	3
TAP	35	288	5
TAP	35	336	2
TAP	35	336	4
TAP	36	0	0
TAP	36	72	2
TAP	36	72	3
TAP	36	144	7
TAP	36	240	2
TAP	36	240	4
TAP	36	288	3
TAP	36	288	5
TAP	36	336	2
TAP	36	336	4
TAP	37	0	3
TAP	37	0	5
STR	37	48	2
SCL	37	48	2	96	48	7
TAP	37	240	3
TAP	37	240	6
TAP	37	336	1
TAP	37	336	4
TAP	38	0	5
HLD	38	48	5	72
HLD	38	120	6	72
TAP	38	192	7
TAP	38	288	1
TAP	38	288	3
HLD	38	336	2	72
HLD	39	24	1	72
TAP	39	96	0
TAP	39	192	4
TAP	39	192	6
TAP	39	240	0
TAP	39	240	5
TAP	39	288	0
TAP	39	288	5
HLD	39	336	2	72
HLD	40	24	1	72
TAP	40	96	0
TAP	40	192	4
TAP	40	192	6
HLD	40	240	5	72
HLD	40	312	6	72
TAP	41	0	7
TAP	41	96	1
TAP	41	96	3
TAP	41	144	2
TAP	41	144	7
TAP	41	192	2
TAP	41	192	7
HLD	41	240	5	72
HLD	41	312	4	72
TAP	42	0	3
TAP	42	96	0
TAP	42	96	6
HLD	42	144	6	72
HLD	42	216	7	72
TAP	42	288	0
TAP	43	0	2
TAP	43	0	4
TAP	43	48	1
TAP	43	48	7
TAP	43	96	1
TAP	43	96	7
HLD	43	144	2	72
TAP	43	216	3
STR	43	288	6
SI_	43	288	6	96	48	2
STR	43	336	7
SI_	43	336	7	96	48	3
HLD	44	144	5	72
TAP	44	216	4
STR	44	288	1
SI_	44	288	1	96	48	5
STR	44	336	0
SI_	44	336	0	96	48	4
HLD	45	144	2	72
HLD	45	216	0	72
TAP	45	288	6
TAP	46	0	4
TAP	46	0	5
HLD	46	48	6	72
HLD	46	120	4	72
TAP	46	192	2
TAP	46	288	0
TAP	46	288	1
TAP	46	336	4
TAP	46	336	5
TAP	47	0	3
TAP	47	0	6
HLD	47	48	5	72
HLD	47	120	7	72
TAP	47	192	1
TAP	47	288	2
TAP	47	288	3
HLD	47	336	1	72
HLD	48	24	3	72
TAP	48	96	5
TAP	48	192	6
TAP	48	192	7
TAP	48	240	2
TAP	48	240	3
TAP	48	288	1
TAP	48	288	4
HLD	48	336	0	72
HLD	49	24	6	72
TAP	49	96	4
TAP	49	192	1
TAP	49	192	2
HLD	49	240	0	72
HLD	49	312	2	72
TAP	50	0	4
TAP	50	96	5
TAP	50	96	6
TAP	50	144	2
TAP	50	144	3
TAP	50	192	1
TAP	50	192	4
HLD	50	240	6	72
TAP	50	312	7
STR	51	0	2
SI_	51	0	2	96	48	6
STR	51	48	3
SI_	51	48	3	96	48	7
HLD	51	240	1	72
TAP	51	312	0
STR	52	0	5
SI_	52	0	5	96	48	1
STR	52	48	4
SI_	52	48	4	96	48	0
HLD	52	240	6	72
TAP	52	312	7
STR	53	0	2
SI_	53	0	2	96	48	6
STR	53	48	3
SI_	53	48	3	96	48	7
TAP	53	240	1
TAP	53	264	0
TAP	53	288	1
TAP	53	312	0
TAP	54	0	6
TAP	54	24	7
TAP	54	48	6
TAP	54	72	7
BRK	54	144	2
BRK	54	144	7
STR	54	240	6
SI_	54	240	6	96	48	2
TAP	54	288	6
STR	54	336	7
SI_	54	336	7	96	48	3
TAP	55	0	7
STR	55	48	0
SI_	55	48	0	96	48	4
TAP	55	96	0
TAP	55	144	1
TAP	55	192	1
TAP	55	240	2
TAP	55	240	3
TAP	55	312	6
TAP	55	312	7
TAP	56	0	2
TAP	56	0	3
TAP	56	96	2
TAP	56	96	5
TAP	56	144	2
TAP	56	144	5
STR	56	240	1
SI_	56	240	1	96	48	5
TAP	56	288	1
STR	56	336	0
SI_	56	336	0	96	48	4
TAP	57	0	0
STR	57	48	7
SI_	57	48	7	96	48	3
TAP	57	96	7
TAP	57	144	6
TAP	57	192	6
TAP	57	240	4
TAP	57	240	5
TAP	57	312	0
TAP	57	312	1
TAP	58	0	4
TAP	58	0	5
TAP	58	96	2
TAP	58	96	5
TAP	58	144	2
TAP	58	144	5
STR	58	240	5
SI_	58	240	5	96	48	1
TAP	58	288	5
STR	58	336	4
SI_	58	336	4	96	48	0
TAP	59	0	4
STR	59	48	3
SI_	59	48	3	96	48	7
TAP	59	96	3
TAP	59	144	2
TAP	59	192	2
TAP	59	240	1
TAP	59	240	2
TAP	59	312	5
TAP	59	312	6
TAP	60	0	1
TAP	60	0	2
TAP	60	96	2
TAP	60	96	5
TAP	60	144	2
TAP	60	144	5
STR	60	240	3
SI_	60	240	3	96	48	6
TAP	60	288	3
STR	60	336	4
SI_	60	336	4	96	48	1
TAP	61	0	4
TAP	61	48	7
TAP	61	96	7
TAP	61	144	6
TAP	61	168	7
TAP	61	192	6
STR	61	216	7
SCL	61	216	7	96	168	4
SSR	61	216	7	96	168	3
HLD	62	240	3	16
HLD	62	240	4	16
HLD	62	288	3	16
HLD	62	288	4	16
HLD	62	336	2	16
HLD	62	336	5	16
HLD	63	0	2	16
HLD	63	0	5	16
HLD	63	48	1	16
HLD	63	48	6	16
HLD	63	96	1	16
HLD	63	96	6	16
TAP	63	144	0
TAP	63	168	7
TAP	63	192	0
BRK	63	216	1
BRK	63	216	6

T_REC_TAP	421
T_REC_BRK	7
T_REC_XTP	0
T_REC_HLD	42
T_REC_XHO	0
T_REC_STR	41
T_REC_BST	0
T_REC_XST	0
T_REC_TTP	0
T_REC_THO	0
T_REC_SLD	42
T_REC_ALL	553
T_NUM_TAP	462
T_NUM_BRK	7
T_NUM_HLD	42
T_NUM_SLD	42
T_NUM_ALL	553
T_JUDGE_TAP	469
T_JUDGE_HLD	72
T_JUDGE_SLD	42
T_JUDGE_ALL	583
TTM_EACHPAIRS	138
TTM_SCR_TAP	231000
TTM_SCR_BRK	18200
TTM_SCR_HLD	42000
TTM_SCR_SLD	63000
TTM_SCR_ALL	354200
TTM_SCR_S	342900
TTM_SCR_SS	353500
TTM_RAT_ACV	10019

