VERSION	0.00.00	1.03.00
FES_MODE	0
BPM_DEF	144.000	144.000	144.000	144.000
MET_DEF	4	4
RESOLUTION	384
CLK_DEF	384
COMPATIBLE_CODE	MA2

BPM	0	0	144.000
MET	0	0	4	4
MET	31	0	8	9
MET	32	48	4	4
MET	33	48	8	6
MET	33	336	4	4
MET	34	336	8	9
MET	37	48	4	4
MET	38	48	4	7
MET	43	144	4	4
MET	45	144	4	7
MET	50	240	4	4

TAP	1	0	2
TAP	1	0	3
TAP	1	96	3
TAP	1	192	4
TAP	1	288	4
TAP	1	288	5
TAP	2	0	6
TAP	2	96	5
TAP	2	192	4
TAP	2	288	2
TAP	2	288	3
TAP	3	0	4
TAP	3	0	5
TAP	3	96	4
TAP	3	192	3
TAP	3	288	2
TAP	3	288	3
TAP	4	0	1
TAP	4	96	2
TAP	4	192	3
TAP	4	288	4
TAP	4	288	5
TAP	5	0	2
TAP	5	48	2
TAP	5	144	3
TAP	5	240	4
TAP	5	336	5
TAP	6	48	6
TAP	6	144	7
TAP	6	240	0
TAP	6	336	1
TAP	7	48	2
TAP	7	144	2
TAP	7	144	3
TAP	7	240	5
TAP	7	336	4
TAP	7	336	5
TAP	8	48	2
TAP	8	48	3
TAP	8	144	4
TAP	8	144	5
TAP	8	240	1
TAP	8	240	6
TAP	8	288	1
TAP	8	288	6
TAP	9	0	2
TAP	9	0	3
TAP	9	96	0
TAP	9	96	7
TAP	9	192	4
TAP	9	192	5
TAP	9	288	0
TAP	9	288	7
TAP	10	0	1
TAP	10	0	3
TAP	10	96	0
TAP	10	96	7
TAP	10	192	4
TAP	10	192	6
BRK	10	288	0
BRK	10	288	7
TAP	11	288	3
TAP	11	288	4
TAP	12	0	2
TAP	12	96	3
TAP	12	192	2
TAP	12	288	1
TAP	12	288	4
TAP	13	0	5
TAP	13	96	4
TAP	13	192	5
TAP	13	288	3
TAP	13	288	6
TAP	14	0	2
TAP	14	96	3
TAP	14	192	2
TAP	14	288	1
TAP	14	288	4
TAP	15	0	5
TAP	15	96	4
TAP	15	192	5
TAP	15	288	3
TAP	15	288	6
TAP	16	0	1
TAP	16	96	0
TAP	16	192	1
TAP	16	288	2
TAP	16	288	7
TAP	17	0	6
TAP	17	96	7
TAP	17	192	6
TAP	17	288	0
TAP	17	288	5
HLD	18	0	1	96
HLD	18	0	6	96
HLD	18	192	3	96
HLD	18	192	4	96
HLD	19	0	0	96
HLD	19	0	1	96
HLD	19	192	6	96
HLD	19	192	7	96
HLD	20	0	0	96
HLD	20	0	2	96
HLD	20	192	5	96
HLD	20	192	7	96
TAP	21	0	3
TAP	21	0	4
TAP	21	96	2
TAP	21	96	5
TAP	21	192	1
TAP	21	192	6
BRK	21	288	0
BRK	21	288	7
TAP	22	0	1
TAP	22	96	0
TAP	22	96	1
TAP	22	192	6
TAP	22	192	7
TAP	22	288	0
TAP	22	288	1
TAP	23	0	6
TAP	23	48	7
TAP	23	96	6
TAP	23	192	1
TAP	23	240	0
TAP	23	288	1
TAP	24	0	6
TAP	24	96	6
TAP	24	96	7
TAP	24	192	0
TAP	24	192	1
TAP	24	288	6
TAP	24	288	7
TAP	25	0	1
TAP	25	48	0
TAP	25	96	1
TAP	25	192	6
TAP	25	240	7
TAP	25	288	6
TAP	26	0	5
TAP	26	96	4
TAP	26	96	6
TAP	26	192	1
TAP	26	192	3
TAP	26	288	4
TAP	26	288	6
TAP	27	0	2
TAP	27	48	3
TAP	27	96	2
TAP	27	192	4
STR	27	240	4
SCR	27	240	4	96	336	3
STR	29	0	0
SCR	29	0	0	96	144	3
STR	29	0	7
SCL	29	0	7	96	144	4
HLD	30	0	4	96
TAP	30	96	3
HLD	30	192	2	96
TAP	30	288	3
HLD	31	0	5	96
TAP	31	96	4
HLD	31	192	2	96
TAP	31	288	3
TAP	32	0	4
HLD	32	48	4	96
TAP	32	144	3
HLD	32	240	2	96
TAP	32	336	3
STR	33	48	4
SCR	33	48	4	96	96	7
HLD	33	336	0	96
TAP	34	48	7
HLD	34	144	6	96
TAP	34	240	7
HLD	34	336	1	96
TAP	35	48	0
HLD	35	144	6	96
TAP	35	240	7
TAP	35	336	0
HLD	36	0	0	96
TAP	36	96	7
HLD	36	192	6	96
TAP	36	288	7
TAP	37	0	1
STR	37	48	1
SXR	37	48	1	96	192	4
TAP	38	48	5
TAP	38	144	4
TAP	38	240	3
TAP	38	240	6
TAP	38	336	2
TAP	39	48	3
TAP	39	144	1
TAP	39	144	4
TAP	39	240	1
TAP	39	240	4
TAP	39	336	2
TAP	40	48	3
TAP	40	144	1
TAP	40	144	4
TAP	40	240	5
TAP	40	336	4
TAP	41	48	3
TAP	41	48	6
TAP	41	144	3
TAP	41	144	6
TAP	41	240	5
TAP	41	336	4
TAP	42	48	3
TAP	42	48	6
TAP	42	144	2
TAP	42	240	3
TAP	42	336	1
TAP	42	336	4
TAP	43	48	1
TAP	43	48	4
TAP	43	144	5
TAP	43	192	5
TAP	43	288	3
TAP	43	288	4
TAP	44	0	1
TAP	44	96	3
TAP	44	96	4
TAP	44	192	6
TAP	44	288	3
TAP	44	288	4
TAP	45	0	2
TAP	45	48	2
TAP	45	144	1
TAP	45	240	0
TAP	45	336	2
TAP	45	336	7
TAP	46	48	6
TAP	46	144	7
TAP	46	240	0
TAP	46	240	5
TAP	46	336	0
TAP	46	336	5
TAP	47	48	6
TAP	47	144	7
TAP	47	240	0
TAP	47	240	5
TAP	47	336	1
TAP	48	48	0
TAP	48	144	2
TAP	48	144	7
TAP	48	240	2
TAP	48	240	7
TAP	48	336	1
TAP	49	48	0
TAP	49	144	2
TAP	49	144	7
TAP	49	240	6
TAP	49	336	7
TAP	50	48	0
TAP	50	48	5
TAP	50	144	0
TAP	50	144	5
TAP	50	240	6
TAP	50	288	6
TAP	51	0	0
TAP	51	0	7
TAP	51	96	1
TAP	51	192	0
TAP	51	192	7
TAP	51	288	6
TAP	52	0	0
TAP	52	0	7
TAP	52	96	1
TAP	52	192	0
TAP	52	192	7
TAP	52	288	6
TAP	53	0	0
TAP	53	0	7
TAP	53	96	1
TAP	53	96	6
TAP	53	192	2
TAP	53	192	5
TAP	53	240	2
TAP	53	240	5
TAP	53	336	3
TAP	53	336	4
TAP	54	48	2
TAP	54	48	5
BRK	54	144	0
BRK	54	144	7
TAP	54	240	2
TAP	54	288	2
TAP	55	0	3
TAP	55	96	4
TAP	55	192	5
TAP	55	288	6
TAP	56	0	7
TAP	56	96	0
TAP	56	96	1
TAP	56	192	6
TAP	56	192	7
TAP	56	288	5
TAP	57	0	4
TAP	57	96	3
TAP	57	192	2
TAP	57	288	1
TAP	58	0	0
TAP	58	96	6
TAP	58	96	7
TAP	58	192	0
TAP	58	192	1
TAP	58	288	2
TAP	58	288	3
TAP	59	0	4
TAP	59	0	5
TAP	59	96	2
TAP	59	96	3
TAP	59	192	4
TAP	59	192	5
TAP	59	288	6
TAP	59	288	7
TAP	60	0	0
TAP	60	0	1
TAP	60	96	6
TAP	60	96	7
TAP	60	192	0
TAP	60	192	1
TAP	60	288	2
TAP	60	288	7
TAP	61	0	0
TAP	61	0	5
TAP	61	96	1
TAP	61	96	6
TAP	61	144	1
TAP	61	144	6
TAP	61	192	1
TAP	61	192	6
TAP	62	144	1
TAP	62	144	6
TAP	62	240	0
TAP	62	240	7
TAP	62	288	0
TAP	62	288	7
TAP	62	336	0
TAP	62	336	7
STR	63	0	0
SXL	63	0	0	96	384	3
STR	63	0	7
SXR	63	0	7	96	384	4

T_REC_TAP	302
T_REC_BRK	6
T_REC_XTP	0
T_REC_HLD	24
T_REC_XHO	0
T_REC_STR	7
T_REC_BST	0
T_REC_XST	0
T_REC_TTP	0
T_REC_THO	0
T_REC_SLD	7
T_REC_ALL	346
T_NUM_TAP	309
T_NUM_BRK	6
T_NUM_HLD	24
T_NUM_SLD	7
T_NUM_ALL	346
T_JUDGE_TAP	315
T_JUDGE_HLD	48
T_JUDGE_SLD	7
T_JUDGE_ALL	370
TTM_EACHPAIRS	101
TTM_SCR_TAP	154500
TTM_SCR_BRK	15600
TTM_SCR_HLD	24000
TTM_SCR_SLD	10500
TTM_SCR_ALL	204600
TTM_SCR_S	197900
TTM_SCR_SS	204000
TTM_RAT_ACV	10029

