VERSION	0.00.00	1.03.00
FES_MODE	0
BPM_DEF	144.000	144.000	144.000	144.000
MET_DEF	4	4
RESOLUTION	384
CLK_DEF	384
COMPATIBLE_CODE	MA2

BPM	0	0	144.000
MET	0	0	4	4
MET	31	0	8	9
MET	32	48	4	4
MET	33	48	8	6
MET	33	336	4	4
MET	34	336	8	9
MET	37	48	4	4
MET	38	48	4	7
MET	43	144	4	4
MET	45	144	4	7
MET	50	240	4	4

HLD	1	0	0	288
HLD	2	0	0	144
HLD	2	0	1	144
HLD	3	0	7	288
HLD	4	0	6	144
HLD	4	0	7	144
TAP	5	0	0
TAP	5	96	0
TAP	5	192	1
TAP	5	288	1
HLD	6	0	2	144
HLD	6	0	3	144
TAP	7	0	4
TAP	7	96	4
TAP	7	192	5
TAP	7	288	5
HLD	8	0	6	144
HLD	8	0	7	144
HLD	9	0	0	144
HLD	9	0	7	144
TAP	9	288	0
TAP	9	288	7
HLD	10	0	1	144
HLD	10	0	6	144
BRK	10	288	1
BRK	10	288	6
TAP	12	0	3
TAP	12	96	3
HLD	12	192	3	96
TAP	13	0	4
TAP	13	96	4
HLD	13	192	4	96
TAP	14	0	2
TAP	14	96	2
HLD	14	192	2	96
TAP	15	0	5
TAP	15	96	5
HLD	15	192	5	96
TAP	16	0	3
TAP	16	96	2
HLD	16	192	1	96
TAP	17	0	4
TAP	17	96	5
HLD	17	192	6	96
HLD	18	0	0	144
HLD	18	0	7	144
TAP	18	288	0
TAP	18	288	7
HLD	19	0	1	144
HLD	19	0	6	144
TAP	19	288	1
TAP	19	288	6
HLD	20	0	2	144
HLD	20	0	5	144
TAP	20	288	2
TAP	20	288	5
TAP	21	0	3
TAP	21	96	4
TAP	21	192	3
BRK	21	288	4
TAP	22	0	3
TAP	22	96	3
TAP	22	192	2
TAP	22	288	2
HLD	23	0	0	288
HLD	23	0	1	288
TAP	24	0	7
TAP	24	96	7
TAP	24	192	6
TAP	24	288	6
HLD	25	0	4	288
HLD	25	0	5	288
TAP	26	0	3
TAP	26	96	3
TAP	26	192	4
TAP	26	288	4
HLD	27	0	2	288
HLD	27	0	5	288
TAP	28	0	4
TAP	28	96	4
TAP	28	192	3
TAP	28	288	3
BRK	29	0	2
BRK	29	0	5
TAP	30	0	4
TAP	30	96	4
TAP	30	192	5
TAP	30	288	5
TAP	31	0	6
TAP	31	96	6
TAP	31	192	0
TAP	31	192	7
TAP	32	48	0
TAP	32	144	0
TAP	32	240	1
TAP	32	336	1
HLD	33	48	2	192
HLD	33	48	3	192
TAP	33	336	3
TAP	34	48	3
TAP	34	144	2
TAP	34	240	2
TAP	34	336	1
TAP	35	48	1
TAP	35	144	0
TAP	35	144	7
TAP	36	0	7
TAP	36	96	7
TAP	36	192	6
STR	36	288	6
SI_	36	288	6	96	288	2
TAP	38	48	1
TAP	38	144	1
TAP	38	240	0
TAP	38	240	1
TAP	38	336	2
TAP	39	48	2
TAP	39	144	3
TAP	39	240	3
TAP	39	336	4
TAP	40	48	4
TAP	40	144	3
TAP	40	144	4
TAP	40	240	5
TAP	40	336	5
TAP	41	48	6
TAP	41	144	6
TAP	41	240	7
TAP	41	336	7
TAP	42	48	0
TAP	42	48	7
TAP	42	144	0
TAP	42	240	0
TAP	42	336	1
TAP	43	48	1
STR	43	144	1
SI_	43	144	1	96	288	5
TAP	45	144	6
TAP	45	240	6
TAP	45	336	6
TAP	45	336	7
TAP	46	48	5
TAP	46	144	5
TAP	46	240	4
TAP	46	336	4
TAP	47	48	3
TAP	47	144	3
TAP	47	240	3
TAP	47	240	4
TAP	47	336	2
TAP	48	48	2
TAP	48	144	1
TAP	48	240	1
TAP	48	336	0
TAP	49	48	0
TAP	49	144	0
TAP	49	144	7
TAP	49	240	7
TAP	49	336	7
TAP	50	48	6
TAP	50	144	6
STR	50	240	6
SI_	50	240	6	96	288	2
STR	52	240	0
SI_	52	240	0	96	288	4
TAP	54	240	5
TAP	54	336	5
TAP	55	48	4
TAP	55	144	4
TAP	55	240	2
TAP	55	240	3
HLD	56	0	2	144
HLD	56	0	3	144
TAP	56	240	2
TAP	56	336	2
TAP	57	48	3
TAP	57	144	3
TAP	57	240	4
TAP	57	240	5
HLD	58	0	4	144
HLD	58	0	5	144
TAP	58	240	6
TAP	58	336	6
TAP	59	48	7
TAP	59	144	7
TAP	59	240	0
TAP	59	240	1
HLD	60	0	0	144
HLD	60	0	1	144
TAP	60	240	0
TAP	60	336	0
TAP	61	48	7
TAP	61	144	7
BRK	61	240	1
BRK	61	240	6
TAP	62	240	0
TAP	62	240	7
TAP	62	336	0
TAP	62	336	7
HLD	63	48	1	168
HLD	63	48	6	168

T_REC_TAP	144
T_REC_BRK	7
T_REC_XTP	0
T_REC_HLD	42
T_REC_XHO	0
T_REC_STR	4
T_REC_BST	0
T_REC_XST	0
T_REC_TTP	0
T_REC_THO	0
T_REC_SLD	4
T_REC_ALL	201
T_NUM_TAP	148
T_NUM_BRK	7
T_NUM_HLD	42
T_NUM_SLD	4
T_NUM_ALL	201
T_JUDGE_TAP	155
T_JUDGE_HLD	148
T_JUDGE_SLD	4
T_JUDGE_ALL	307
TTM_EACHPAIRS	37
TTM_SCR_TAP	74000
TTM_SCR_BRK	18200
TTM_SCR_HLD	42000
TTM_SCR_SLD	6000
TTM_SCR_ALL	140200
TTM_SCR_S	135350
TTM_SCR_SS	139500
TTM_RAT_ACV	10050

