VERSION	0.00.00	1.03.00
FES_MODE	0
BPM_DEF	135.000	135.000	135.000	135.000
MET_DEF	4	4
RESOLUTION	384
CLK_DEF	384
COMPATIBLE_CODE	MA2

BPM	0	0	135.000
MET	0	0	4	4

STR	2	0	1
SI_	2	0	1	96	48	4
STR	2	0	5
SI_	2	0	5	96	48	0
STR	2	192	2
SI_	2	192	2	96	48	7
STR	2	192	6
SI_	2	192	6	96	48	3
STR	3	0	0
SSL	3	0	0	96	96	4
HLD	3	192	5	72
STR	4	0	2
SI_	4	0	2	96	48	7
STR	4	0	6
SI_	4	0	6	96	48	3
STR	4	192	1
SI_	4	192	1	96	48	4
STR	4	192	5
SI_	4	192	5	96	48	0
STR	5	0	7
SF_	5	0	7	96	48	3
TAP	5	192	1
TAP	5	192	6
TAP	5	288	3
TAP	5	288	4
STR	6	0	2
SI_	6	0	2	96	48	7
STR	6	0	7
SI_	6	0	7	96	48	4
STR	6	192	0
SI_	6	192	0	96	48	3
STR	6	192	5
SI_	6	192	5	96	48	0
STR	7	0	7
SSR	7	0	7	96	96	3
HLD	7	192	2	72
STR	8	0	3
SI_	8	0	3	96	48	0
STR	8	0	6
SI_	8	0	6	96	48	3
STR	8	192	1
SI_	8	192	1	96	48	4
STR	8	192	4
SI_	8	192	4	96	48	7
STR	9	0	0
SF_	9	0	0	96	48	4
BRK	9	192	1
BRK	9	192	6
TAP	10	0	6
TAP	10	48	5
TAP	10	96	4
TAP	10	144	1
TAP	10	168	1
TAP	10	216	7
TAP	10	264	3
TAP	10	312	5
TAP	10	336	5
TAP	11	0	1
TAP	11	48	2
TAP	11	96	3
TAP	11	144	6
TAP	11	168	6
TAP	11	216	0
TAP	11	264	4
TAP	11	312	2
TAP	11	336	2
TAP	12	0	6
TAP	12	48	5
TAP	12	96	4
TAP	12	144	1
TAP	12	168	1
TAP	12	216	7
TAP	12	264	3
TAP	12	312	5
TAP	12	336	5
TAP	13	0	2
TAP	13	24	2
TAP	13	72	3
TAP	13	72	4
TAP	13	120	1
TAP	13	120	6
HLD	13	168	0	72
HLD	13	168	7	72
TAP	13	288	1
TAP	13	288	6
TAP	13	312	1
TAP	13	312	6
BST	14	0	0
SI_	14	0	0	96	48	5
BST	14	0	1
SI_	14	0	1	96	48	4
TAP	14	72	0
TAP	14	72	1
TAP	14	240	2
TAP	14	240	3
TAP	14	288	4
TAP	14	312	4
TAP	15	0	0
TAP	15	0	1
TAP	15	48	5
TAP	15	48	7
TAP	15	96	3
TAP	15	96	4
TAP	15	120	3
TAP	15	120	4
HLD	15	168	2	72
TAP	15	240	0
TAP	15	288	4
TAP	15	288	5
TAP	15	336	6
TAP	15	336	7
BST	16	0	0
SCL	16	0	0	96	48	5
BST	16	0	1
SCR	16	0	1	96	48	4
TAP	16	72	0
TAP	16	72	1
TAP	16	240	6
TAP	16	240	7
TAP	16	288	5
TAP	16	312	5
TAP	17	0	0
TAP	17	0	4
TAP	17	48	3
TAP	17	48	6
TAP	17	96	0
TAP	17	96	1
TAP	17	120	0
TAP	17	120	1
HLD	17	168	6	72
TAP	17	240	7
TAP	17	288	3
TAP	17	288	5
TAP	17	336	0
TAP	17	336	2
BST	18	0	6
SI_	18	0	6	96	48	3
BST	18	0	7
SI_	18	0	7	96	48	2
TAP	18	72	6
TAP	18	72	7
TAP	18	240	4
TAP	18	240	5
TAP	18	288	3
TAP	18	312	3
TAP	19	0	6
TAP	19	0	7
TAP	19	48	0
TAP	19	48	2
TAP	19	96	3
TAP	19	96	4
TAP	19	120	3
TAP	19	120	4
HLD	19	168	5	72
TAP	19	240	7
TAP	19	288	2
TAP	19	288	3
TAP	19	336	0
TAP	19	336	1
BST	20	0	6
SCL	20	0	6	96	48	3
BST	20	0	7
SCR	20	0	7	96	48	2
TAP	20	72	6
TAP	20	72	7
TAP	20	240	0
TAP	20	240	1
TAP	20	288	2
TAP	20	312	2
TAP	21	0	3
TAP	21	0	7
TAP	21	48	1
TAP	21	48	4
TAP	21	96	6
TAP	21	96	7
TAP	21	120	6
TAP	21	120	7
HLD	21	168	1	72
TAP	21	240	0
TAP	21	288	2
TAP	21	288	4
TAP	21	336	5
TAP	21	336	7
HLD	22	0	2	72
HLD	22	72	1	72
STR	22	144	0
SCR	22	144	0	96	48	3
TAP	22	240	4
TAP	22	288	5
TAP	22	336	6
TAP	22	336	7
HLD	23	0	5	72
HLD	23	72	6	72
STR	23	144	7
SCL	23	144	7	96	48	4
TAP	23	240	3
TAP	23	288	2
TAP	23	336	0
TAP	23	336	1
HLD	24	0	3	72
HLD	24	72	1	72
STR	24	144	7
SI_	24	144	7	96	48	3
TAP	24	240	0
TAP	24	288	0
TAP	24	336	2
TAP	24	336	6
HLD	25	0	4	72
HLD	25	72	6	72
BST	25	144	0
SF_	25	144	0	96	48	4
HLD	26	0	6	72
TAP	26	0	7
HLD	26	72	5	72
STR	26	144	4
SI_	26	144	4	96	48	0
TAP	26	240	7
TAP	26	288	1
TAP	26	336	2
TAP	26	336	7
TAP	27	0	0
HLD	27	0	1	72
HLD	27	72	2	72
STR	27	144	3
SI_	27	144	3	96	48	7
TAP	27	240	0
TAP	27	288	6
TAP	27	336	0
TAP	27	336	5
HLD	28	0	4	72
TAP	28	0	6
TAP	28	72	3
TAP	28	144	2
TAP	28	144	7
TAP	28	192	1
HLD	28	192	3	72
TAP	28	264	4
TAP	28	336	0
TAP	28	336	5
TAP	29	0	2
HLD	29	0	7	72
TAP	29	72	6
TAP	29	144	2
TAP	29	144	3
HLD	29	192	0	72
TAP	29	192	5
TAP	29	264	1
TAP	29	336	4
TAP	29	336	5
TAP	30	0	1
TAP	30	0	3
TAP	30	72	4
TAP	30	72	6
TAP	30	144	2
TAP	30	144	5
TAP	30	192	0
TAP	30	192	7
TAP	30	240	1
TAP	30	264	6
TAP	30	288	2
TAP	30	312	5
TAP	30	336	3
TAP	30	360	4
BST	31	0	2
SI_	31	0	2	96	48	7
BRK	31	0	5
STR	31	96	6
SI_	31	96	6	96	48	2
STR	31	192	1
SI_	31	192	1	96	48	4
TAP	31	288	5
TAP	32	0	0
TAP	32	0	7
TAP	32	48	5
TAP	32	72	4
TAP	32	120	2
TAP	32	144	3
TAP	32	192	6
TAP	32	216	4
TAP	32	264	1
TAP	32	288	3
TAP	32	336	4
TAP	32	336	6
STR	33	0	1
SI_	33	0	1	96	48	4
TAP	33	0	3
TAP	33	72	1
TAP	33	144	7
TAP	33	192	4
STR	33	192	6
SI_	33	192	6	96	48	2
TAP	33	264	6
TAP	33	336	0
TAP	34	0	3
TAP	34	0	4
TAP	34	48	1
TAP	34	72	0
TAP	34	120	6
TAP	34	144	7
TAP	34	192	2
TAP	34	216	0
TAP	34	264	5
TAP	34	288	7
TAP	34	336	1
TAP	34	336	3
TAP	35	0	4
STR	35	0	6
SI_	35	0	6	96	48	3
TAP	35	72	6
TAP	35	144	0
STR	35	192	1
SI_	35	192	1	96	48	5
TAP	35	192	3
TAP	35	264	1
TAP	35	336	7
STR	36	0	0
SI_	36	0	0	96	48	3
TAP	36	0	2
TAP	36	72	0
STR	36	72	7
SI_	36	72	7	96	48	4
TAP	36	144	5
TAP	36	240	6
TAP	36	288	3
TAP	36	288	4
TAP	36	336	0
TAP	36	336	1
TAP	37	0	5
STR	37	0	7
SI_	37	0	7	96	48	4
STR	37	72	0
SI_	37	72	0	96	48	3
TAP	37	72	7
TAP	37	144	2
TAP	37	240	1
TAP	37	288	3
TAP	37	288	4
TAP	37	336	6
TAP	37	336	7
TAP	38	0	0
HLD	38	0	2	72
TAP	38	72	3
TAP	38	144	0
TAP	38	144	7
HLD	38	192	5	72
TAP	38	192	7
TAP	38	264	4
TAP	38	336	0
TAP	38	336	7
TAP	39	0	0
HLD	39	0	2	72
TAP	39	72	3
TAP	39	144	0
TAP	39	144	7
BRK	39	192	1
BRK	39	192	6
TAP	39	240	2
TAP	39	264	4
TAP	39	288	3
TAP	39	312	5
TAP	39	336	4
TAP	39	360	6
STR	40	0	0
SI_	40	0	0	96	48	3
SI_	40	0	0	96	48	5
TAP	40	192	2
HLD	40	192	4	72
TAP	40	264	6
TAP	40	336	1
TAP	40	336	7
HLD	41	0	3	72
TAP	41	0	5
TAP	41	72	1
TAP	41	144	0
TAP	41	144	6
TAP	41	192	5
TAP	41	192	7
TAP	41	264	0
TAP	41	264	2
TAP	41	336	3
TAP	41	336	4
BRK	42	0	1
BRK	42	0	6
TAP	42	96	4
TAP	42	96	5
TAP	42	192	1
TAP	42	216	0
TAP	42	264	3
TAP	42	264	6
TAP	42	312	0
TAP	42	312	4
TAP	42	360	2
TAP	42	360	6
STR	43	0	2
SUL	43	0	2	96	48	6
STR	43	0	6
SUL	43	0	6	96	48	2
TAP	43	192	0
TAP	43	192	7
TAP	43	288	4
TAP	44	0	1
TAP	44	24	0
TAP	44	48	1
TAP	44	72	0
HLD	44	96	1	144
TAP	44	144	0
TAP	44	168	0
TAP	44	216	6
TAP	44	240	6
TAP	44	288	4
TAP	44	312	3
TAP	44	336	4
TAP	44	360	3
TAP	45	0	6
TAP	45	24	7
TAP	45	48	6
TAP	45	72	7
HLD	45	96	6	144
TAP	45	144	7
TAP	45	168	7
TAP	45	216	1
TAP	45	240	1
TAP	45	288	3
TAP	45	312	4
TAP	45	336	3
TAP	45	360	4
TAP	46	0	1
TAP	46	24	0
TAP	46	48	2
TAP	46	72	7
TAP	46	96	3
TAP	46	120	4
TAP	46	144	2
TAP	46	168	5
TAP	46	192	7
TAP	46	216	6
TAP	46	240	0
TAP	46	264	5
TAP	46	288	3
TAP	46	312	4
TAP	46	336	1
TAP	46	360	6
STR	47	0	0
SCR	47	0	0	96	96	6
STR	47	192	7
SSR	47	192	7	96	48	3
TAP	48	0	2
TAP	48	24	2
TAP	48	48	3
TAP	48	72	2
TAP	48	96	2
TAP	48	120	4
TAP	48	144	1
TAP	48	168	1
TAP	48	192	5
TAP	48	216	5
TAP	48	240	4
TAP	48	264	5
TAP	48	288	5
TAP	48	312	3
TAP	48	336	6
TAP	48	360	6
TAP	49	0	1
TAP	49	24	1
TAP	49	48	3
TAP	49	72	1
TAP	49	96	1
TAP	49	120	5
TAP	49	144	0
TAP	49	168	0
TAP	49	192	6
TAP	49	216	6
TAP	49	240	4
TAP	49	264	6
TAP	49	288	6
TAP	49	312	2
TAP	49	336	7
TAP	49	360	7
TAP	50	0	3
TAP	50	0	7
TAP	50	32	6
TAP	50	64	5
TAP	50	96	0
TAP	50	96	4
TAP	50	128	1
TAP	50	160	2
TAP	50	192	3
TAP	50	192	7
TAP	50	224	6
TAP	50	256	5
TAP	50	288	0
TAP	50	288	4
TAP	50	320	1
TAP	50	352	2
TAP	51	0	3
TAP	51	0	7
TAP	51	96	0
TAP	51	96	4
TAP	51	192	1
TAP	51	192	5
TAP	51	288	2
TAP	51	288	6
TAP	52	0	3
STR	52	0	7
SCL	52	0	7	96	192	0
TAP	53	0	1
TAP	53	72	2
TAP	53	144	3
TAP	53	192	6
TAP	53	264	5
TAP	53	336	4
STR	54	0	0
SCR	54	0	0	96	192	7
HLD	55	0	0	72
TAP	55	0	2
HLD	55	72	7	72
TAP	55	144	5
STR	55	192	3
SF_	55	192	3	96	48	7
TAP	55	192	4
TAP	56	0	4
TAP	56	0	5
TAP	56	96	2
TAP	56	96	3
TAP	56	192	4
TAP	56	192	6
TAP	56	288	1
TAP	56	288	3
TAP	57	0	5
TAP	57	0	7
TAP	57	96	0
TAP	57	96	2
TAP	57	192	6
TAP	57	192	7
TAP	57	288	0
TAP	57	288	1
TAP	58	0	6
TAP	58	0	7
TAP	58	48	5
TAP	58	96	0
TAP	58	96	1
TAP	58	144	2
TAP	58	192	0
TAP	58	192	6
TAP	58	240	4
TAP	58	288	1
TAP	58	288	7
TAP	58	336	3
TAP	59	0	3
TAP	59	0	4
TAP	59	72	0
TAP	59	72	2
TAP	59	144	5
TAP	59	144	7
STR	59	192	1
SI_	59	192	1	96	48	4
STR	59	192	6
SI_	59	192	6	96	48	3
BRK	59	288	1
BRK	59	288	6
TAP	60	0	6
TAP	60	0	7
TAP	60	48	2
TAP	60	72	3
TAP	60	120	6
TAP	60	144	7
TAP	60	192	2
TAP	60	216	4
TAP	60	264	1
TAP	60	288	0
TAP	60	336	4
TAP	60	336	5
TAP	61	0	0
STR	61	0	2
SI_	61	0	2	96	48	7
TAP	61	72	2
TAP	61	72	3
TAP	61	144	6
TAP	61	192	5
STR	61	192	7
SI_	61	192	7	96	48	4
TAP	61	264	0
TAP	61	264	7
TAP	61	336	3
TAP	62	0	0
TAP	62	0	1
TAP	62	48	5
TAP	62	72	4
TAP	62	120	1
TAP	62	144	0
TAP	62	192	5
TAP	62	216	3
TAP	62	264	6
TAP	62	288	7
TAP	62	336	2
TAP	62	336	3
STR	63	0	5
SI_	63	0	5	96	48	0
TAP	63	0	7
TAP	63	72	4
TAP	63	72	5
TAP	63	144	1
STR	63	192	0
SI_	63	192	0	96	48	3
TAP	63	192	2
TAP	63	264	0
TAP	63	264	7
TAP	63	336	4
STR	64	0	0
SI_	64	0	0	96	48	5
TAP	64	0	6
TAP	64	72	0
STR	64	72	1
SI_	64	72	1	96	48	4
TAP	64	144	3
TAP	64	240	5
TAP	64	288	3
TAP	64	288	5
TAP	64	336	1
TAP	64	336	3
TAP	65	0	1
STR	65	0	7
SI_	65	0	7	96	48	2
STR	65	72	6
SI_	65	72	6	96	48	3
TAP	65	72	7
TAP	65	144	4
TAP	65	240	2
TAP	65	288	2
TAP	65	288	4
TAP	65	336	4
TAP	65	336	6
HLD	66	0	0	72
TAP	66	0	2
TAP	66	72	7
TAP	66	144	3
TAP	66	144	4
TAP	66	192	5
HLD	66	192	7	72
TAP	66	264	0
TAP	66	336	3
TAP	66	336	4
HLD	67	0	0	72
TAP	67	0	2
TAP	67	72	7
TAP	67	144	3
TAP	67	144	4
BRK	67	192	1
BRK	67	192	6
TAP	67	240	5
TAP	67	264	3
TAP	67	288	4
TAP	67	312	2
TAP	67	336	3
TAP	67	360	1
STR	68	0	7
SI_	68	0	7	96	48	2
SI_	68	0	7	96	48	4
HLD	68	192	3	72
TAP	68	192	5
TAP	68	264	1
TAP	68	336	0
TAP	68	336	6
TAP	69	0	2
HLD	69	0	4	72
TAP	69	72	6
TAP	69	144	1
TAP	69	144	7
TAP	69	192	0
TAP	69	192	2
TAP	69	264	5
TAP	69	264	7
TAP	69	336	3
TAP	69	336	4
BRK	70	0	1
BRK	70	0	6
TAP	70	96	2
TAP	70	96	3
TAP	70	192	6
TAP	70	216	7
TAP	70	264	1
TAP	70	264	4
TAP	70	312	3
TAP	70	312	7
TAP	70	360	1
TAP	70	360	5
STR	71	0	1
SUR	71	0	1	96	48	5
STR	71	0	5
SUR	71	0	5	96	48	1
TAP	71	192	0
TAP	71	192	7
BRK	71	288	3
TAP	72	0	1
TAP	72	48	2
TAP	72	96	3
TAP	72	144	5
TAP	72	168	5
TAP	72	216	2
TAP	72	216	3
TAP	72	264	1
TAP	72	264	4
TAP	72	288	2
TAP	72	312	3
TAP	72	336	2
TAP	72	360	3
TAP	73	0	1
TAP	73	48	0
TAP	73	96	7
TAP	73	144	2
TAP	73	168	2
TAP	73	216	0
TAP	73	216	1
TAP	73	264	3
TAP	73	264	6
TAP	73	288	5
TAP	73	312	4
TAP	73	336	5
TAP	73	360	4
TAP	74	0	7
TAP	74	48	0
TAP	74	48	1
TAP	74	96	2
TAP	74	96	3
TAP	74	144	5
TAP	74	168	5
TAP	74	216	1
TAP	74	216	4
TAP	74	264	3
TAP	74	264	6
TAP	74	288	1
TAP	74	312	0
TAP	74	336	1
TAP	74	360	0
HLD	75	0	2	72
TAP	75	72	3
TAP	75	144	0
TAP	75	144	6
HLD	75	192	5	72
TAP	75	264	4
TAP	75	336	1
TAP	75	336	7
TAP	76	0	6
TAP	76	48	5
TAP	76	96	4
TAP	76	144	2
TAP	76	168	2
TAP	76	216	4
TAP	76	216	5
TAP	76	264	3
TAP	76	264	6
TAP	76	288	5
TAP	76	312	4
TAP	76	336	5
TAP	76	360	4
TAP	77	0	6
TAP	77	48	7
TAP	77	96	0
TAP	77	144	5
TAP	77	168	5
TAP	77	216	6
TAP	77	216	7
TAP	77	264	1
TAP	77	264	4
TAP	77	288	2
TAP	77	312	3
TAP	77	336	2
TAP	77	360	3
TAP	78	0	0
TAP	78	48	6
TAP	78	48	7
TAP	78	96	4
TAP	78	96	5
TAP	78	144	2
TAP	78	168	2
TAP	78	216	3
TAP	78	216	6
TAP	78	264	1
TAP	78	264	4
TAP	78	288	6
TAP	78	312	7
TAP	78	336	6
TAP	78	360	7
TAP	79	0	5
TAP	79	24	5
TAP	79	72	1
TAP	79	72	3
TAP	79	120	4
TAP	79	120	6
HLD	79	168	0	72
HLD	79	168	7	72
TAP	79	288	1
TAP	79	288	6
TAP	79	312	1
TAP	79	312	6
TAP	80	0	3
TAP	80	24	4
TAP	80	48	3
TAP	80	72	4
TAP	80	120	0
TAP	80	120	7
STR	80	168	1
SI_	80	168	1	96	48	5
STR	80	168	6
SI_	80	168	6	96	48	2
TAP	80	240	1
TAP	80	240	6

T_REC_TAP	613
T_REC_BRK	14
T_REC_XTP	0
T_REC_HLD	42
T_REC_XHO	0
T_REC_STR	58
T_REC_BST	10
T_REC_XST	0
T_REC_TTP	0
T_REC_THO	0
T_REC_SLD	70
T_REC_ALL	807
T_NUM_TAP	671
T_NUM_BRK	24
T_NUM_HLD	42
T_NUM_SLD	70
T_NUM_ALL	807
T_JUDGE_TAP	695
T_JUDGE_HLD	86
T_JUDGE_SLD	70
T_JUDGE_ALL	851
TTM_EACHPAIRS	204
TTM_SCR_TAP	335500
TTM_SCR_BRK	62400
TTM_SCR_HLD	42000
TTM_SCR_SLD	105000
TTM_SCR_ALL	544900
TTM_SCR_S	526250
TTM_SCR_SS	542500
TTM_RAT_ACV	10044

