VERSION	0.00.00	1.03.00
FES_MODE	0
BPM_DEF	135.000	135.000	135.000	135.000
MET_DEF	4	4
RESOLUTION	384
CLK_DEF	384
COMPATIBLE_CODE	MA2

BPM	0	0	135.000
MET	0	0	4	4

TAP	2	0	2
TAP	2	96	3
TAP	2	96	4
HLD	2	192	5	72
HLD	2	264	4	72
TAP	2	336	3
TAP	3	0	2
TAP	3	48	3
TAP	3	96	2
TAP	4	0	5
TAP	4	96	3
TAP	4	96	4
HLD	4	192	2	72
HLD	4	264	3	72
TAP	4	336	4
TAP	5	0	5
TAP	5	48	4
TAP	5	96	5
TAP	5	192	0
TAP	5	192	7
TAP	5	288	1
TAP	5	288	6
TAP	6	0	2
TAP	6	96	3
TAP	6	96	4
HLD	6	192	5	72
HLD	6	264	4	72
TAP	6	336	3
TAP	7	0	2
TAP	7	48	3
TAP	7	96	2
TAP	8	0	4
TAP	8	96	3
TAP	8	96	5
HLD	8	192	2	72
HLD	8	264	3	72
TAP	8	336	4
TAP	9	0	5
TAP	9	48	4
STR	9	96	5
SXL	9	96	5	96	144	1
TAP	10	0	0
TAP	10	96	1
TAP	10	96	7
TAP	10	192	6
TAP	10	240	7
TAP	10	288	6
TAP	11	0	7
TAP	11	96	0
TAP	11	96	6
TAP	11	192	1
TAP	11	240	0
TAP	11	288	1
TAP	12	0	1
TAP	12	96	0
TAP	12	96	2
TAP	12	192	6
TAP	12	240	7
TAP	12	288	6
STR	13	0	0
SSL	13	0	0	96	192	4
STR	14	0	1
SI_	14	0	1	96	48	4
STR	14	0	7
SI_	14	0	7	96	48	4
TAP	14	240	2
TAP	14	288	3
TAP	14	336	1
TAP	14	336	4
TAP	15	0	5
TAP	15	48	4
HLD	15	96	6	72
TAP	15	168	7
TAP	15	240	0
TAP	15	240	1
TAP	15	288	2
TAP	15	288	7
STR	16	0	0
SI_	16	0	0	96	48	3
STR	16	0	6
SI_	16	0	6	96	48	3
TAP	16	240	5
TAP	16	288	4
TAP	16	336	3
TAP	16	336	6
TAP	17	0	2
TAP	17	48	3
HLD	17	96	1	72
TAP	17	168	0
TAP	17	240	6
TAP	17	240	7
TAP	17	288	0
TAP	17	288	5
STR	18	0	1
SI_	18	0	1	96	48	4
STR	18	0	7
SI_	18	0	7	96	48	4
TAP	18	240	2
TAP	18	288	3
TAP	18	336	1
TAP	18	336	4
TAP	19	0	5
TAP	19	48	4
HLD	19	96	6	72
TAP	19	168	7
TAP	19	240	0
TAP	19	240	1
TAP	19	288	2
TAP	19	288	7
STR	20	0	0
SI_	20	0	0	96	48	3
STR	20	0	6
SI_	20	0	6	96	48	3
TAP	20	240	5
TAP	20	288	4
TAP	20	336	3
TAP	20	336	6
TAP	21	0	2
TAP	21	48	3
HLD	21	96	1	72
TAP	21	168	0
TAP	21	240	6
TAP	21	240	7
TAP	21	288	1
TAP	21	288	4
HLD	22	0	4	72
HLD	22	72	3	72
TAP	22	144	2
TAP	22	240	1
TAP	22	288	1
HLD	23	0	3	72
HLD	23	72	4	72
TAP	23	144	5
TAP	23	240	6
TAP	23	288	6
HLD	24	0	4	72
HLD	24	72	2	72
TAP	24	144	0
TAP	24	240	7
TAP	24	288	7
HLD	25	0	3	72
HLD	25	72	5	72
TAP	25	144	7
TAP	25	240	0
TAP	25	288	0
HLD	26	0	4	72
HLD	26	72	3	72
TAP	26	144	2
TAP	26	240	1
TAP	26	288	0
TAP	26	288	2
HLD	27	0	3	72
HLD	27	72	4	72
TAP	27	144	5
TAP	27	240	6
TAP	27	288	5
TAP	27	288	7
STR	28	0	0
SI_	28	0	0	96	48	4
STR	28	192	6
SI_	28	192	6	96	48	3
STR	29	0	1
SI_	29	0	1	96	48	4
STR	29	192	6
SI_	29	192	6	96	48	2
BRK	30	0	1
BST	30	0	3
SF_	30	0	3	96	192	7
STR	31	0	0
SI_	31	0	0	96	48	4
STR	31	96	6
SI_	31	96	6	96	48	3
STR	31	192	1
SI_	31	192	1	96	48	4
TAP	31	288	6
STR	32	0	0
SI_	32	0	0	96	48	4
STR	32	0	1
SI_	32	0	1	96	48	5
STR	32	192	6
SI_	32	192	6	96	48	2
STR	32	192	7
SI_	32	192	7	96	48	3
HLD	33	0	1	72
HLD	33	72	2	72
TAP	33	144	3
HLD	33	192	6	72
HLD	33	264	5	72
TAP	33	336	4
STR	34	0	6
SI_	34	0	6	96	48	2
STR	34	0	7
SI_	34	0	7	96	48	3
STR	34	192	0
SI_	34	192	0	96	48	4
STR	34	192	1
SI_	34	192	1	96	48	5
HLD	35	0	6	72
HLD	35	72	5	72
TAP	35	144	4
HLD	35	192	1	72
HLD	35	264	2	72
TAP	35	336	3
HLD	36	0	3	72
HLD	36	72	4	72
TAP	36	144	5
TAP	36	240	6
TAP	36	288	5
TAP	36	336	4
HLD	37	0	4	72
HLD	37	72	3	72
TAP	37	144	2
TAP	37	240	1
TAP	37	288	2
TAP	37	336	3
HLD	38	0	2	72
HLD	38	72	3	72
TAP	38	144	1
HLD	38	192	5	72
HLD	38	264	4	72
TAP	38	336	6
HLD	39	0	1	72
HLD	39	72	0	72
TAP	39	144	2
TAP	39	192	3
TAP	39	192	5
STR	40	0	1
SUR	40	0	1	96	48	5
STR	40	0	5
SUR	40	0	5	96	48	1
BRK	40	192	3
BRK	40	192	7
TAP	40	288	1
TAP	40	288	5
STR	41	0	2
SUL	41	0	2	96	48	6
STR	41	0	6
SUL	41	0	6	96	48	2
BRK	41	192	0
BRK	41	192	4
TAP	41	288	2
TAP	41	288	6
TAP	42	0	4
TAP	42	0	5
TAP	42	96	2
TAP	42	96	3
TAP	42	192	4
TAP	42	192	6
TAP	42	288	1
TAP	42	288	3
STR	43	0	0
SI_	43	0	0	96	48	3
STR	43	0	7
SI_	43	0	7	96	48	4
TAP	43	192	1
TAP	43	192	6
TAP	44	0	6
TAP	44	0	7
TAP	44	96	0
TAP	44	96	5
TAP	44	192	2
TAP	44	240	3
TAP	44	288	1
TAP	44	288	4
TAP	45	0	0
TAP	45	0	1
TAP	45	96	2
TAP	45	96	7
TAP	45	192	5
TAP	45	240	4
TAP	45	288	3
TAP	45	288	6
STR	46	0	5
SI_	46	0	5	96	48	0
STR	46	192	1
SI_	46	192	1	96	48	4
STR	47	0	5
SI_	47	0	5	96	48	0
TAP	47	0	6
TAP	47	192	1
STR	47	192	2
SI_	47	192	2	96	48	7
HLD	48	0	0	72
HLD	48	72	7	72
TAP	48	144	6
HLD	48	192	7	72
HLD	48	264	0	72
TAP	48	336	1
HLD	49	0	0	72
HLD	49	72	7	72
TAP	49	144	5
HLD	49	192	7	72
HLD	49	264	0	72
TAP	49	336	2
STR	50	0	0
SI_	50	0	0	96	48	5
STR	50	96	7
SI_	50	96	7	96	48	2
STR	50	192	1
SI_	50	192	1	96	48	5
STR	50	288	6
SI_	50	288	6	96	48	2
TAP	51	0	1
TAP	51	96	0
TAP	51	96	2
TAP	51	192	6
TAP	51	288	5
TAP	51	288	7
TAP	52	0	2
STR	52	0	6
SCR	52	0	6	96	192	3
TAP	53	0	6
TAP	53	96	5
TAP	53	96	7
TAP	53	192	1
TAP	53	288	0
TAP	53	288	2
STR	54	0	1
SCL	54	0	1	96	192	4
TAP	54	0	5
TAP	55	0	1
TAP	55	96	0
TAP	55	96	2
TAP	55	192	6
TAP	55	288	5
TAP	55	288	7
STR	56	0	0
SV_	56	0	0	96	48	1
STR	56	192	7
SV_	56	192	7	96	48	6
STR	57	0	1
SV_	57	0	1	96	48	2
STR	57	192	6
SV_	57	192	6	96	48	5
STR	58	0	2
SV_	58	0	2	96	48	3
TAP	58	96	5
STR	58	192	5
SV_	58	192	5	96	48	4
TAP	58	288	2
TAP	59	0	3
TAP	59	48	3
TAP	59	96	4
TAP	59	144	4
TAP	59	192	1
TAP	59	192	6
TAP	59	288	0
TAP	59	288	7
STR	60	0	1
SI_	60	0	1	96	48	4
STR	60	0	5
SI_	60	0	5	96	48	0
STR	60	192	2
SI_	60	192	2	96	48	7
STR	60	192	6
SI_	60	192	6	96	48	3
HLD	61	0	2	72
HLD	61	72	0	72
TAP	61	144	7
HLD	61	192	5	72
HLD	61	264	7	72
TAP	61	336	0
STR	62	0	1
SI_	62	0	1	96	48	4
STR	62	0	5
SI_	62	0	5	96	48	0
STR	62	192	2
SI_	62	192	2	96	48	7
STR	62	192	6
SI_	62	192	6	96	48	3
HLD	63	0	5	72
HLD	63	72	7	72
TAP	63	144	0
HLD	63	192	2	72
HLD	63	264	0	72
TAP	63	336	7
HLD	64	0	5	72
HLD	64	72	3	72
TAP	64	144	1
TAP	64	240	0
TAP	64	240	1
TAP	64	288	2
TAP	64	288	3
TAP	64	336	1
TAP	64	336	4
HLD	65	0	2	72
HLD	65	72	4	72
TAP	65	144	6
TAP	65	240	6
TAP	65	240	7
TAP	65	288	4
TAP	65	288	5
TAP	65	336	3
TAP	65	336	6
HLD	66	0	4	72
HLD	66	72	2	72
TAP	66	144	1
HLD	66	192	3	72
HLD	66	264	5	72
TAP	66	336	6
HLD	67	0	4	72
HLD	67	72	2	72
TAP	67	144	1
TAP	67	192	3
TAP	67	192	6
STR	68	0	0
SUR	68	0	0	96	48	4
STR	68	0	4
SUR	68	0	4	96	48	0
BRK	68	192	2
BRK	68	192	6
TAP	68	288	0
TAP	68	288	4
STR	69	0	2
SUL	69	0	2	96	48	6
STR	69	0	6
SUL	69	0	6	96	48	2
BRK	69	192	0
BRK	69	192	4
TAP	69	288	2
TAP	69	288	6
TAP	70	0	6
TAP	70	0	7
TAP	70	96	0
TAP	70	96	1
TAP	70	192	5
TAP	70	192	7
TAP	70	288	0
TAP	70	288	2
STR	71	0	3
SI_	71	0	3	96	48	0
STR	71	0	4
SI_	71	0	4	96	48	7
TAP	71	192	2
TAP	71	192	5
TAP	71	288	0
TAP	71	288	7
TAP	72	0	0
TAP	72	48	1
TAP	72	96	2
TAP	72	144	3
TAP	72	192	2
TAP	72	192	4
TAP	72	240	1
TAP	72	240	5
TAP	72	288	0
TAP	72	288	6
TAP	73	0	7
TAP	73	48	6
TAP	73	96	5
TAP	73	144	4
TAP	73	192	3
TAP	73	192	5
TAP	73	240	2
TAP	73	240	6
TAP	73	288	1
TAP	73	288	7
TAP	74	0	0
TAP	74	48	1
TAP	74	96	2
TAP	74	144	3
TAP	74	192	2
TAP	74	192	4
TAP	74	240	1
TAP	74	240	5
TAP	74	288	0
TAP	74	288	6
STR	75	0	1
SUR	75	0	1	96	48	5
STR	75	0	5
SUR	75	0	5	96	48	1
BST	75	192	3
SUL	75	192	3	96	48	7
BST	75	192	7
SUL	75	192	7	96	48	3
TAP	76	0	5
TAP	76	48	4
TAP	76	96	3
TAP	76	144	2
TAP	76	192	1
TAP	76	192	3
TAP	76	240	0
TAP	76	240	4
TAP	76	288	5
TAP	76	288	7
TAP	77	0	2
TAP	77	48	3
TAP	77	96	4
TAP	77	144	5
TAP	77	192	4
TAP	77	192	6
TAP	77	240	3
TAP	77	240	7
TAP	77	288	0
TAP	77	288	2
TAP	78	0	5
TAP	78	48	4
TAP	78	96	3
TAP	78	144	2
TAP	78	192	1
TAP	78	192	3
TAP	78	240	0
TAP	78	240	4
STR	78	288	5
SCR	78	288	5	96	288	4
TAP	78	288	7
TAP	80	0	4
TAP	80	24	3
TAP	80	48	4
TAP	80	72	3
TAP	80	120	3
TAP	80	120	4
TAP	80	168	2
TAP	80	168	5
BST	80	240	2
SUR	80	240	2	96	288	5
BRK	80	240	5

T_REC_TAP	303
T_REC_BRK	10
T_REC_XTP	0
T_REC_HLD	68
T_REC_XHO	0
T_REC_STR	64
T_REC_BST	4
T_REC_XST	0
T_REC_TTP	0
T_REC_THO	0
T_REC_SLD	68
T_REC_ALL	517
T_NUM_TAP	367
T_NUM_BRK	14
T_NUM_HLD	68
T_NUM_SLD	68
T_NUM_ALL	517
T_JUDGE_TAP	381
T_JUDGE_HLD	136
T_JUDGE_SLD	68
T_JUDGE_ALL	585
TTM_EACHPAIRS	110
TTM_SCR_TAP	183500
TTM_SCR_BRK	36400
TTM_SCR_HLD	68000
TTM_SCR_SLD	102000
TTM_SCR_ALL	389900
TTM_SCR_S	376850
TTM_SCR_SS	388500
TTM_RAT_ACV	10036

