VERSION	0.00.00	1.03.00
FES_MODE	0
BPM_DEF	135.000	135.000	135.000	135.000
MET_DEF	4	4
RESOLUTION	384
CLK_DEF	384
COMPATIBLE_CODE	MA2

BPM	0	0	135.000
MET	0	0	4	4

TAP	2	0	2
TAP	2	192	1
STR	3	0	0
SI_	3	0	0	96	96	4
TAP	4	0	5
TAP	4	192	6
STR	5	0	7
SI_	5	0	7	96	96	3
TAP	6	0	3
TAP	6	192	2
STR	7	0	1
SCR	7	0	1	96	96	4
TAP	8	0	4
TAP	8	192	5
TAP	9	0	6
TAP	9	192	0
TAP	9	192	7
TAP	10	0	2
TAP	10	96	3
TAP	10	192	2
TAP	11	0	5
TAP	11	96	4
TAP	11	192	5
TAP	12	0	0
TAP	12	96	7
TAP	12	192	1
TAP	12	192	6
STR	13	0	0
SCR	13	0	0	96	96	3
STR	13	0	7
SCL	13	0	7	96	96	4
TAP	14	0	1
TAP	14	96	2
TAP	14	192	3
TAP	14	288	4
TAP	15	0	5
TAP	15	96	6
TAP	15	192	0
TAP	15	192	7
TAP	16	0	6
TAP	16	96	5
TAP	16	192	4
TAP	16	288	3
TAP	17	0	2
TAP	17	96	1
TAP	17	192	0
TAP	17	192	7
TAP	18	0	2
TAP	18	96	1
TAP	18	192	0
TAP	18	288	7
TAP	19	0	6
TAP	19	96	5
TAP	19	192	3
TAP	19	192	4
TAP	20	0	5
TAP	20	96	6
TAP	20	192	7
TAP	20	288	0
TAP	21	0	1
TAP	21	96	2
TAP	21	192	3
TAP	21	192	4
HLD	22	0	5	96
TAP	22	96	4
TAP	22	192	4
TAP	22	192	5
HLD	23	0	2	96
TAP	23	96	3
TAP	23	192	2
TAP	23	192	3
HLD	24	0	6	96
TAP	24	96	4
TAP	24	192	4
TAP	24	192	6
HLD	25	0	1	96
TAP	25	96	3
TAP	25	192	1
TAP	25	192	3
HLD	26	0	5	96
TAP	26	96	4
TAP	26	192	3
TAP	26	192	6
HLD	27	0	2	96
TAP	27	96	3
TAP	27	192	1
TAP	27	192	4
HLD	28	0	5	96
TAP	28	96	4
HLD	28	192	2	96
TAP	28	288	3
HLD	29	0	6	96
TAP	29	96	4
HLD	29	192	1	96
TAP	29	288	3
STR	30	0	6
SCL	30	0	6	96	192	1
BRK	31	0	1
BRK	31	0	6
TAP	32	0	2
TAP	32	96	2
TAP	32	192	2
TAP	32	192	3
TAP	32	288	2
TAP	32	288	3
TAP	33	0	5
TAP	33	96	5
TAP	33	192	4
TAP	33	192	5
TAP	33	288	4
TAP	33	288	5
TAP	34	0	2
TAP	34	96	1
TAP	34	96	3
TAP	34	192	5
TAP	34	288	4
TAP	34	288	6
TAP	35	0	0
TAP	35	0	7
TAP	35	96	1
TAP	35	96	6
TAP	35	192	2
TAP	35	192	5
TAP	36	0	1
TAP	36	96	2
TAP	36	192	3
TAP	36	288	4
TAP	36	288	5
TAP	37	0	6
TAP	37	96	5
TAP	37	192	4
TAP	37	288	2
TAP	37	288	3
TAP	38	0	1
TAP	38	96	0
TAP	38	96	1
TAP	38	192	6
TAP	38	288	6
TAP	38	288	7
TAP	39	0	0
TAP	39	0	7
STR	39	96	0
SI_	39	96	0	96	96	3
STR	39	96	7
SI_	39	96	7	96	96	4
TAP	40	0	3
TAP	40	96	2
TAP	40	192	1
TAP	40	288	0
TAP	41	0	7
TAP	41	96	6
TAP	41	192	5
TAP	41	288	4
STR	42	0	2
SCL	42	0	2	96	192	5
TAP	43	0	3
TAP	43	0	4
TAP	43	96	3
TAP	43	96	4
BRK	43	192	1
BRK	43	192	6
TAP	44	0	2
TAP	44	96	3
HLD	44	192	2	96
TAP	44	288	3
TAP	45	0	5
TAP	45	96	4
HLD	45	192	5	96
TAP	45	288	4
HLD	46	0	1	96
HLD	46	0	3	96
HLD	46	192	4	96
HLD	46	192	6	96
HLD	47	0	0	96
HLD	47	0	7	96
TAP	47	192	1
TAP	47	192	6
TAP	48	0	1
TAP	48	96	2
TAP	48	192	3
TAP	48	288	4
TAP	49	0	6
TAP	49	96	5
TAP	49	192	4
TAP	49	288	3
TAP	50	0	0
TAP	50	96	1
TAP	50	192	2
TAP	50	288	3
TAP	51	0	4
TAP	51	96	5
TAP	51	192	6
TAP	51	288	7
STR	52	0	0
SSL	52	0	0	96	192	4
STR	53	0	6
SCL	53	0	6	96	96	3
STR	54	0	1
SCR	54	0	1	96	96	4
STR	55	0	7
SSR	55	0	7	96	192	3
TAP	56	0	1
TAP	56	96	1
TAP	56	192	2
TAP	56	288	2
TAP	57	0	3
TAP	57	96	3
TAP	57	192	4
TAP	57	288	4
TAP	58	0	5
TAP	58	96	5
TAP	58	192	6
TAP	58	288	6
TAP	59	0	0
TAP	59	0	7
TAP	59	96	0
TAP	59	96	7
BRK	59	192	1
BRK	59	192	6
TAP	60	0	2
TAP	60	96	2
TAP	60	96	3
TAP	60	192	5
TAP	60	288	4
TAP	60	288	5
TAP	61	0	2
TAP	61	96	1
TAP	61	96	3
TAP	61	192	5
TAP	61	288	4
TAP	61	288	6
TAP	62	0	1
TAP	62	96	0
TAP	62	96	2
TAP	62	192	6
TAP	62	288	5
TAP	62	288	7
TAP	63	0	0
TAP	63	0	1
TAP	63	96	0
TAP	63	96	7
TAP	63	192	6
TAP	63	192	7
HLD	64	0	5	96
TAP	64	96	4
TAP	64	192	4
TAP	64	192	5
TAP	64	288	3
TAP	64	288	6
HLD	65	0	2	96
TAP	65	96	3
TAP	65	192	2
TAP	65	192	3
TAP	65	288	1
TAP	65	288	4
TAP	66	0	4
TAP	66	0	5
TAP	66	96	3
TAP	66	96	6
TAP	66	192	2
TAP	66	192	3
TAP	66	288	1
TAP	66	288	4
TAP	67	0	0
TAP	67	0	7
STR	67	96	0
SCR	67	96	0	96	96	3
STR	67	96	7
SCL	67	96	7	96	96	4
TAP	68	0	4
TAP	68	96	5
TAP	68	192	6
TAP	68	288	7
TAP	69	0	0
TAP	69	96	1
TAP	69	192	2
TAP	69	288	3
STR	70	0	5
SCR	70	0	5	96	192	2
TAP	71	0	3
TAP	71	0	4
TAP	71	96	3
TAP	71	96	4
BRK	71	192	1
BRK	71	192	6
TAP	72	0	2
TAP	72	96	3
TAP	72	192	2
TAP	72	288	1
TAP	72	288	3
TAP	73	0	5
TAP	73	96	4
TAP	73	192	5
TAP	73	288	4
TAP	73	288	6
TAP	74	0	0
TAP	74	96	7
TAP	74	192	1
TAP	74	192	6
TAP	74	288	1
TAP	74	288	6
STR	75	0	0
SCR	75	0	0	96	96	3
STR	75	0	7
SCL	75	0	7	96	96	4
TAP	76	0	6
TAP	76	96	7
TAP	76	192	6
TAP	76	288	5
TAP	76	288	7
TAP	77	0	1
TAP	77	96	0
TAP	77	192	1
TAP	77	288	0
TAP	77	288	2
TAP	78	0	4
TAP	78	96	3
TAP	78	192	2
TAP	78	192	5
TAP	78	288	2
TAP	78	288	5
STR	79	0	3
SCL	79	0	3	96	96	0
STR	79	0	4
SCR	79	0	4	96	96	7
TAP	80	0	1
TAP	80	0	6
TAP	80	96	2
TAP	80	96	5
BRK	80	192	3
BRK	80	192	4

T_REC_TAP	261
T_REC_BRK	10
T_REC_XTP	0
T_REC_HLD	20
T_REC_XHO	0
T_REC_STR	20
T_REC_BST	0
T_REC_XST	0
T_REC_TTP	0
T_REC_THO	0
T_REC_SLD	20
T_REC_ALL	331
T_NUM_TAP	281
T_NUM_BRK	10
T_NUM_HLD	20
T_NUM_SLD	20
T_NUM_ALL	331
T_JUDGE_TAP	291
T_JUDGE_HLD	40
T_JUDGE_SLD	20
T_JUDGE_ALL	351
TTM_EACHPAIRS	74
TTM_SCR_TAP	140500
TTM_SCR_BRK	26000
TTM_SCR_HLD	20000
TTM_SCR_SLD	30000
TTM_SCR_ALL	216500
TTM_SCR_S	209050
TTM_SCR_SS	215500
TTM_RAT_ACV	10046

