VERSION	0.00.00	1.03.00
FES_MODE	0
BPM_DEF	135.000	135.000	135.000	135.000
MET_DEF	4	4
RESOLUTION	384
CLK_DEF	384
COMPATIBLE_CODE	MA2

BPM	0	0	135.000
MET	0	0	4	4

TAP	2	0	0
TAP	2	192	0
TAP	3	0	1
TAP	3	192	1
TAP	4	0	2
TAP	4	192	2
TAP	5	0	3
TAP	5	192	3
TAP	6	0	4
TAP	6	96	4
TAP	6	192	4
TAP	7	0	5
TAP	7	96	5
TAP	7	192	5
TAP	8	0	6
TAP	8	96	6
TAP	8	192	6
TAP	9	0	7
TAP	9	96	7
BRK	9	192	7
TAP	10	0	6
TAP	10	96	6
TAP	10	192	5
TAP	10	288	5
TAP	11	0	4
TAP	11	96	4
TAP	11	192	3
TAP	11	192	4
TAP	12	0	1
TAP	12	96	1
TAP	12	192	2
TAP	12	288	2
HLD	13	0	3	192
TAP	14	0	4
TAP	14	0	5
TAP	14	192	4
TAP	14	192	5
TAP	15	0	5
TAP	15	96	4
TAP	15	192	5
TAP	16	0	2
TAP	16	0	3
TAP	16	192	2
TAP	16	192	3
TAP	17	0	2
TAP	17	96	3
TAP	17	192	2
TAP	18	0	3
TAP	18	0	5
TAP	18	192	3
TAP	18	192	5
TAP	19	0	5
TAP	19	96	3
TAP	19	192	5
TAP	20	0	2
TAP	20	0	4
TAP	20	192	2
TAP	20	192	4
TAP	21	0	2
TAP	21	96	4
TAP	21	192	2
STR	22	0	1
SI_	22	0	1	96	288	5
STR	24	0	6
SI_	24	0	6	96	288	2
STR	26	0	0
SI_	26	0	0	96	288	4
STR	28	0	7
SI_	28	0	7	96	288	3
HLD	30	0	0	192
HLD	30	0	7	192
TAP	31	0	0
TAP	31	96	0
TAP	31	192	7
TAP	31	288	7
HLD	32	0	0	192
TAP	33	0	1
TAP	33	96	1
TAP	33	192	2
TAP	33	288	2
HLD	34	0	3	192
TAP	35	0	4
TAP	35	96	4
TAP	35	192	5
TAP	35	288	5
TAP	36	0	6
TAP	36	0	7
TAP	36	96	6
TAP	36	96	7
TAP	36	192	6
TAP	36	192	7
TAP	37	0	4
TAP	37	0	5
TAP	37	96	4
TAP	37	96	5
TAP	37	192	4
TAP	37	192	5
TAP	38	0	3
TAP	38	96	3
TAP	38	192	2
TAP	38	288	2
TAP	39	0	0
TAP	39	0	1
TAP	39	96	0
TAP	39	96	1
TAP	39	192	0
TAP	39	192	1
TAP	40	0	0
TAP	40	0	7
TAP	40	192	1
TAP	40	192	6
TAP	41	0	2
TAP	41	0	5
TAP	41	192	3
TAP	41	192	4
HLD	42	0	3	192
HLD	42	0	4	192
TAP	43	0	3
TAP	43	96	4
BRK	43	192	3
TAP	44	0	4
TAP	44	96	4
TAP	44	192	4
TAP	45	0	5
TAP	45	96	5
TAP	45	192	5
TAP	46	0	6
TAP	46	96	6
TAP	46	192	6
HLD	47	0	6	192
HLD	47	0	7	192
TAP	48	0	0
TAP	48	96	0
TAP	48	192	0
TAP	49	0	1
TAP	49	96	1
TAP	49	192	1
TAP	50	0	2
TAP	50	96	2
TAP	50	192	2
TAP	51	0	3
TAP	51	96	3
TAP	51	192	4
TAP	51	288	4
HLD	52	0	3	192
TAP	53	0	2
TAP	53	192	1
HLD	54	0	0	192
TAP	55	0	7
TAP	55	192	6
HLD	56	0	4	192
HLD	56	0	5	192
HLD	57	0	6	192
HLD	57	0	7	192
TAP	58	0	0
TAP	58	96	0
TAP	58	192	1
TAP	58	288	1
HLD	59	0	2	192
HLD	59	0	3	192
STR	60	0	3
SI_	60	0	3	96	288	0
TAP	61	192	7
STR	62	0	7
SI_	62	0	7	96	288	4
TAP	63	192	3
TAP	64	0	2
TAP	64	96	2
TAP	64	192	2
TAP	64	192	3
TAP	65	0	1
TAP	65	96	1
TAP	65	192	0
TAP	65	192	1
TAP	66	0	7
TAP	66	96	7
TAP	66	192	6
TAP	66	288	6
TAP	67	0	5
TAP	67	96	5
TAP	67	192	4
TAP	67	192	5
TAP	68	0	3
TAP	68	0	4
TAP	68	192	2
TAP	68	192	5
TAP	69	0	1
TAP	69	0	6
TAP	69	192	0
TAP	69	192	7
HLD	70	0	0	192
HLD	70	0	7	192
TAP	71	0	0
TAP	71	96	7
BRK	71	192	0
TAP	72	0	7
TAP	72	96	7
TAP	72	192	6
TAP	72	288	6
TAP	73	0	5
TAP	73	96	5
TAP	73	192	4
TAP	73	288	4
TAP	74	0	3
TAP	74	96	3
TAP	74	192	2
TAP	74	288	2
TAP	75	0	1
TAP	75	96	1
TAP	75	192	0
TAP	75	192	7
TAP	75	288	0
TAP	75	288	7
TAP	76	0	1
TAP	76	96	1
TAP	76	192	2
TAP	76	288	2
TAP	77	0	3
TAP	77	96	3
TAP	77	192	4
TAP	77	288	4
TAP	78	0	5
TAP	78	96	5
TAP	78	192	6
TAP	78	288	6
TAP	79	0	7
TAP	79	96	7
TAP	79	192	0
TAP	79	192	7
TAP	79	288	0
TAP	79	288	7
HLD	80	0	1	240
HLD	80	0	6	240

T_REC_TAP	197
T_REC_BRK	3
T_REC_XTP	0
T_REC_HLD	21
T_REC_XHO	0
T_REC_STR	6
T_REC_BST	0
T_REC_XST	0
T_REC_TTP	0
T_REC_THO	0
T_REC_SLD	6
T_REC_ALL	233
T_NUM_TAP	203
T_NUM_BRK	3
T_NUM_HLD	21
T_NUM_SLD	6
T_NUM_ALL	233
T_JUDGE_TAP	206
T_JUDGE_HLD	86
T_JUDGE_SLD	6
T_JUDGE_ALL	298
TTM_EACHPAIRS	41
TTM_SCR_TAP	101500
TTM_SCR_BRK	7800
TTM_SCR_HLD	21000
TTM_SCR_SLD	9000
TTM_SCR_ALL	139300
TTM_SCR_S	134850
TTM_SCR_SS	139000
TTM_RAT_ACV	10021

