VERSION	0.00.00	1.03.00
FES_MODE	0
BPM_DEF	125.000	125.000	125.000	125.000
MET_DEF	4	4
RESOLUTION	384
CLK_DEF	384
COMPATIBLE_CODE	MA2

BPM	0	0	125.000
MET	0	0	4	4

TAP	2	0	2
TAP	2	48	3
TAP	2	96	1
TAP	2	96	4
TAP	2	144	5
TAP	2	168	4
TAP	2	192	5
TAP	2	240	6
TAP	2	288	0
TAP	2	288	7
TAP	2	336	1
TAP	2	336	6
TAP	3	0	5
TAP	3	48	4
TAP	3	96	3
TAP	3	96	6
TAP	3	144	2
TAP	3	168	3
TAP	3	192	2
TAP	3	240	1
STR	3	288	0
SI_	3	288	0	96	48	5
TAP	3	288	7
TAP	4	0	0
TAP	4	0	5
TAP	4	48	6
STR	4	96	7
SI_	4	96	7	96	48	2
TAP	4	192	2
TAP	4	192	7
TAP	4	240	1
STR	4	288	0
SI_	4	288	0	96	48	4
TAP	5	0	0
STR	5	0	7
SI_	5	0	7	96	48	3
TAP	5	96	0
TAP	5	96	7
STR	5	192	3
SI_	5	192	3	96	48	0
STR	5	192	4
SI_	5	192	4	96	48	7
TAP	5	240	2
TAP	5	240	5
TAP	5	288	3
TAP	5	288	4
HLD	6	0	1	72
HLD	6	0	6	72
TAP	6	96	1
TAP	6	96	6
TAP	6	144	1
TAP	6	144	6
TAP	6	192	2
TAP	6	192	5
TAP	6	240	2
TAP	6	240	5
TAP	6	288	3
TAP	6	288	4
TAP	6	336	3
TAP	6	336	4
STR	7	0	0
SXL	7	0	0	96	192	3
STR	7	0	7
SXR	7	0	7	96	192	4
BRK	7	96	0
BRK	7	96	7
TAP	7	336	1
TAP	8	0	0
TAP	8	48	7
TAP	8	96	6
HLD	8	120	6	72
STR	8	192	4
SCL	8	192	4	96	48	0
TAP	8	288	5
TAP	8	336	6
TAP	9	0	7
TAP	9	48	0
TAP	9	96	1
HLD	9	120	1	72
STR	9	192	3
SCR	9	192	3	96	48	7
TAP	9	288	2
TAP	9	336	1
TAP	10	0	0
TAP	10	48	7
TAP	10	96	6
HLD	10	120	6	72
STR	10	192	4
SUL	10	192	4	96	96	3
TAP	10	288	5
TAP	10	336	6
TAP	11	0	7
TAP	11	48	0
STR	11	96	1
SUR	11	96	1	96	48	6
STR	11	192	7
SCL	11	192	7	96	48	4
SCR	11	192	7	96	48	2
TAP	12	0	3
TAP	12	48	4
TAP	12	96	5
HLD	12	120	5	72
STR	12	192	7
SCR	12	192	7	96	48	3
TAP	12	288	6
TAP	12	336	5
TAP	13	0	4
TAP	13	48	3
TAP	13	96	2
HLD	13	120	2	72
STR	13	192	0
SCL	13	192	0	96	48	4
TAP	13	288	1
TAP	13	336	2
TAP	14	0	3
TAP	14	48	4
TAP	14	96	5
HLD	14	120	5	72
TAP	14	192	1
TAP	14	288	0
TAP	14	288	4
TAP	14	336	1
TAP	14	336	5
TAP	15	0	2
TAP	15	0	6
TAP	15	48	3
TAP	15	48	7
STR	15	96	0
SUL	15	96	0	96	48	2
STR	15	96	4
SUL	15	96	4	96	48	6
TAP	15	120	0
TAP	15	120	4
TAP	15	288	3
TAP	15	288	7
TAP	16	0	1
HLD	16	0	5	96
TAP	16	96	4
TAP	16	144	3
HLD	16	144	6	96
TAP	16	240	7
TAP	16	288	0
STR	16	288	5
SI_	16	288	5	96	48	0
HLD	17	0	2	96
TAP	17	96	3
HLD	17	144	1	96
TAP	17	144	4
TAP	17	240	0
STR	17	288	2
SI_	17	288	2	96	48	7
TAP	17	288	7
HLD	18	0	5	96
TAP	18	96	4
HLD	18	144	3	96
TAP	18	144	6
TAP	18	240	2
STR	18	288	1
SI_	18	288	1	96	48	5
TAP	18	288	4
HLD	19	0	6	96
TAP	19	96	7
HLD	19	144	0	96
TAP	19	144	5
TAP	19	240	1
TAP	19	288	6
TAP	19	288	7
TAP	19	336	0
TAP	19	360	7
TAP	20	0	0
TAP	20	48	4
TAP	20	48	5
TAP	20	96	2
TAP	20	96	3
TAP	20	144	6
TAP	20	168	7
TAP	20	192	0
TAP	20	192	5
TAP	20	240	2
TAP	20	240	7
TAP	20	336	7
TAP	20	360	0
TAP	21	0	7
TAP	21	48	2
TAP	21	48	3
TAP	21	96	4
TAP	21	96	5
TAP	21	144	1
TAP	21	168	0
TAP	21	192	2
TAP	21	192	7
TAP	21	240	0
TAP	21	240	5
TAP	21	288	3
TAP	21	288	4
TAP	21	336	1
TAP	21	360	3
TAP	22	0	2
TAP	22	48	6
TAP	22	72	4
TAP	22	96	5
TAP	22	144	3
STR	22	144	7
SCL	22	144	7	96	96	3
TAP	22	192	2
TAP	22	240	1
TAP	22	288	0
TAP	22	336	7
TAP	23	0	0
TAP	23	0	4
TAP	23	48	3
TAP	23	48	7
TAP	23	96	1
TAP	23	96	6
TAP	23	144	0
TAP	23	168	7
TAP	23	192	0
TAP	23	240	1
TAP	23	240	3
TAP	23	288	4
TAP	23	288	6
TAP	23	336	2
TAP	23	336	5
TAP	24	0	0
TAP	24	0	7
TAP	24	24	0
TAP	24	24	7
TAP	24	48	1
TAP	24	48	6
TAP	24	96	3
TAP	24	96	4
TAP	24	120	3
TAP	24	120	4
BRK	24	168	1
BRK	24	168	6
TAP	24	288	0
TAP	24	288	7
TAP	24	312	0
TAP	24	312	7
HLD	25	0	1	96
TAP	25	0	6
TAP	25	48	4
TAP	25	96	0
TAP	25	144	2
TAP	25	144	7
TAP	25	192	0
TAP	25	192	5
TAP	25	240	6
TAP	25	264	7
TAP	25	288	6
TAP	25	336	2
TAP	25	336	3
TAP	26	0	1
TAP	26	0	4
TAP	26	48	3
TAP	26	48	6
STR	26	96	0
SCL	26	96	0	96	48	5
STR	26	96	1
SCR	26	96	1	96	48	4
TAP	26	120	0
TAP	26	120	1
TAP	26	192	0
TAP	26	192	1
TAP	26	288	2
TAP	26	288	7
HLD	26	312	2	72
TAP	26	312	7
HLD	27	0	3	96
TAP	27	96	4
TAP	27	144	4
TAP	27	144	5
TAP	27	192	6
TAP	27	192	7
TAP	27	240	1
TAP	27	264	0
TAP	27	288	1
TAP	27	336	2
TAP	27	336	7
TAP	28	0	5
TAP	28	24	4
TAP	28	48	5
TAP	28	96	1
TAP	28	96	6
TAP	28	144	2
TAP	28	168	3
TAP	28	192	2
TAP	28	216	3
TAP	28	240	2
TAP	28	288	0
TAP	28	288	7
TAP	28	312	0
TAP	28	312	7
TAP	29	0	1
HLD	29	0	6	96
TAP	29	48	3
TAP	29	96	7
TAP	29	144	0
TAP	29	144	5
TAP	29	192	2
TAP	29	192	7
TAP	29	240	1
TAP	29	264	0
TAP	29	288	1
TAP	29	336	4
TAP	29	336	5
TAP	30	0	3
TAP	30	0	6
TAP	30	48	1
TAP	30	48	4
STR	30	96	6
SCL	30	96	6	96	48	3
STR	30	96	7
SCR	30	96	7	96	48	2
TAP	30	120	6
TAP	30	120	7
TAP	30	192	6
TAP	30	192	7
TAP	30	288	0
TAP	30	288	5
TAP	30	336	2
TAP	30	336	7
TAP	31	0	1
HLD	31	0	6	96
TAP	31	96	7
TAP	31	144	6
TAP	31	192	0
TAP	31	192	5
TAP	31	240	1
TAP	31	264	0
TAP	31	288	1
TAP	31	336	2
TAP	31	336	7
HLD	32	0	3	96
TAP	32	48	4
TAP	32	96	4
TAP	32	144	6
TAP	32	168	7
TAP	32	192	6
TAP	32	240	0
TAP	32	240	5
TAP	32	288	1
TAP	32	312	4
TAP	32	336	3
TAP	32	360	6
HLD	33	0	2	96
TAP	33	96	3
TAP	33	144	2
TAP	33	192	0
TAP	33	192	1
TAP	33	240	2
TAP	33	264	3
TAP	33	288	2
TAP	33	336	4
TAP	33	336	5
TAP	34	0	6
TAP	34	0	7
TAP	34	48	0
TAP	34	48	1
TAP	34	96	2
TAP	34	96	3
TAP	34	144	4
TAP	34	144	5
STR	34	192	6
SI_	34	192	6	96	48	3
STR	34	192	7
SI_	34	192	7	96	48	2
BRK	34	288	6
BRK	34	288	7
HLD	35	0	0	72
HLD	35	0	7	72
TAP	35	96	0
TAP	35	96	7
TAP	35	144	1
HLD	35	192	1	72
HLD	35	264	2	72
TAP	35	336	3
HLD	36	0	3	48
TAP	36	48	4
TAP	36	72	3
TAP	36	192	6
TAP	36	240	5
TAP	36	288	3
TAP	36	288	4
TAP	36	312	3
TAP	36	312	4
HLD	37	0	0	72
HLD	37	0	7	72
TAP	37	96	0
TAP	37	96	7
TAP	37	144	6
HLD	37	192	6	72
HLD	37	264	5	72
TAP	37	336	4
HLD	38	0	4	96
TAP	38	48	1
HLD	38	96	3	96
TAP	38	144	6
STR	38	192	4
SI_	38	192	4	96	48	1
SI_	38	192	4	96	48	7
TAP	38	240	2
TAP	38	240	6
TAP	39	0	0
TAP	39	48	1
TAP	39	48	7
TAP	39	96	2
TAP	39	96	6
TAP	39	144	5
TAP	39	168	4
TAP	39	192	5
TAP	39	240	3
TAP	39	240	6
TAP	39	288	1
TAP	39	288	4
TAP	39	336	7
TAP	39	360	0
TAP	40	0	7
TAP	40	48	0
TAP	40	48	6
TAP	40	96	1
TAP	40	96	5
TAP	40	144	2
TAP	40	168	3
TAP	40	192	2
TAP	40	240	1
TAP	40	240	4
TAP	40	288	3
TAP	40	288	6
TAP	40	336	1
TAP	40	360	0
TAP	41	0	1
TAP	41	48	6
TAP	41	72	7
TAP	41	96	6
STR	41	144	0
SCR	41	144	0	96	96	4
TAP	41	144	4
TAP	41	192	5
TAP	41	240	6
TAP	41	288	7
TAP	41	336	0
TAP	42	0	3
TAP	42	0	7
TAP	42	48	0
TAP	42	48	4
TAP	42	96	2
TAP	42	96	5
TAP	42	144	3
TAP	42	168	4
TAP	42	192	3
TAP	42	240	0
TAP	42	240	2
TAP	42	288	5
TAP	42	288	7
TAP	42	336	1
TAP	42	336	6
TAP	43	0	3
STR	43	0	4
SUL	43	0	4	96	96	3
STR	43	144	1
SCL	43	144	1	96	48	6
TAP	43	240	3
TAP	43	288	4
TAP	43	336	5
HLD	44	0	1	144
TAP	44	0	6
TAP	44	144	0
STR	44	192	0
SI_	44	192	0	96	48	5
STR	44	288	1
SI_	44	288	1	96	48	4
HLD	45	0	6	144
TAP	45	144	7
TAP	45	192	0
TAP	45	192	5
TAP	45	288	4
HLD	45	312	4	72
HLD	46	0	3	96
TAP	46	96	4
TAP	46	144	3
TAP	46	192	5
TAP	46	240	3
TAP	46	264	4
TAP	46	288	3
TAP	46	336	2
HLD	47	0	1	192
TAP	47	48	3
TAP	47	96	4
TAP	47	144	5
HLD	47	192	6	96
STR	47	288	7
SI_	47	288	7	96	48	2
STR	48	0	6
SI_	48	0	6	96	48	3
HLD	48	96	1	96
TAP	48	192	5
TAP	48	240	2
TAP	48	240	6
TAP	48	288	3
STR	48	288	7
SI_	48	288	7	96	48	3
STR	49	0	1
SI_	49	0	1	96	48	5
TAP	49	0	7
TAP	49	96	1
STR	49	96	4
SI_	49	96	4	96	48	0
TAP	49	192	3
TAP	49	192	4
TAP	49	288	1
TAP	49	336	2
HLD	50	0	3	96
TAP	50	96	4
TAP	50	144	3
TAP	50	192	1
TAP	50	192	6
TAP	50	240	3
TAP	50	264	4
TAP	50	288	3
TAP	50	336	4
TAP	50	336	5
TAP	51	0	2
TAP	51	0	3
TAP	51	48	0
TAP	51	48	7
TAP	51	96	4
TAP	51	96	5
TAP	51	144	0
TAP	51	144	7
TAP	51	192	2
STR	51	192	3
SI_	51	192	3	96	48	7
TAP	51	288	0
TAP	51	312	0
HLD	52	0	1	96
TAP	52	0	5
TAP	52	48	7
TAP	52	96	3
TAP	52	144	2
TAP	52	144	4
TAP	52	192	3
TAP	52	192	5
TAP	52	240	6
TAP	52	264	7
TAP	52	288	6
TAP	52	336	0
TAP	52	336	1
TAP	53	0	2
TAP	53	0	7
TAP	53	48	0
TAP	53	48	5
STR	53	96	2
SCL	53	96	2	96	48	7
STR	53	96	3
SCR	53	96	3	96	48	6
TAP	53	120	2
TAP	53	120	3
TAP	53	192	2
TAP	53	192	3
TAP	53	288	0
TAP	53	288	5
TAP	53	312	0
HLD	53	312	5	72
HLD	54	0	4	96
TAP	54	96	3
TAP	54	144	1
TAP	54	144	3
TAP	54	192	4
TAP	54	192	6
TAP	54	240	3
TAP	54	264	4
TAP	54	288	3
TAP	54	336	2
TAP	54	336	5
TAP	55	0	6
TAP	55	24	7
TAP	55	48	6
TAP	55	96	3
TAP	55	96	4
TAP	55	144	1
TAP	55	168	0
TAP	55	192	1
TAP	55	216	0
TAP	55	240	1
TAP	55	288	0
TAP	55	288	7
TAP	55	312	0
TAP	55	312	7
TAP	56	0	2
HLD	56	0	6	96
TAP	56	48	0
TAP	56	96	4
TAP	56	144	3
TAP	56	144	5
TAP	56	192	2
TAP	56	192	4
TAP	56	240	1
TAP	56	264	0
TAP	56	288	1
TAP	56	336	6
TAP	56	336	7
TAP	57	0	0
TAP	57	0	5
TAP	57	48	2
TAP	57	48	7
STR	57	96	4
SCL	57	96	4	96	48	1
STR	57	96	5
SCR	57	96	5	96	48	0
TAP	57	120	4
TAP	57	120	5
TAP	57	192	4
TAP	57	192	5
TAP	57	288	2
TAP	57	288	7
TAP	57	336	0
TAP	57	336	5
HLD	58	0	1	96
TAP	58	0	6
TAP	58	96	0
TAP	58	144	1
TAP	58	192	2
TAP	58	192	3
TAP	58	240	5
TAP	58	264	4
TAP	58	288	5
TAP	58	336	3
TAP	58	336	6
HLD	59	0	2	96
TAP	59	48	0
TAP	59	96	0
TAP	59	144	5
TAP	59	168	7
TAP	59	192	5
TAP	59	240	0
TAP	59	240	7
TAP	59	288	3
TAP	59	312	4
TAP	59	336	2
TAP	59	360	5
HLD	60	0	1	96
TAP	60	96	0
TAP	60	144	1
TAP	60	192	2
TAP	60	192	3
TAP	60	240	0
TAP	60	264	7
TAP	60	288	0
TAP	60	336	1
TAP	60	336	6
TAP	61	0	3
TAP	61	0	4
TAP	61	48	5
TAP	61	48	6
TAP	61	96	0
TAP	61	96	7
TAP	61	144	1
TAP	61	144	2
STR	61	192	3
SI_	61	192	3	96	48	7
STR	61	192	4
SI_	61	192	4	96	48	0
BRK	61	288	3
BRK	61	288	4
TAP	62	0	5
TAP	62	48	4
TAP	62	48	6
TAP	62	96	2
TAP	62	144	1
TAP	62	144	3
HLD	62	192	5	96
TAP	62	288	4
HLD	62	336	3	96
TAP	62	336	6
TAP	63	48	6
HLD	63	96	2	96
TAP	63	96	5
TAP	63	192	3
STR	63	240	1
SCR	63	240	1	96	48	4
HLD	63	240	4	96
HLD	64	0	5	48
HLD	64	48	6	48
HLD	64	96	4	48
HLD	64	144	7	48
HLD	64	192	3	48
HLD	64	240	0	48
HLD	64	288	2	48
HLD	64	336	1	48
HLD	65	0	0	96
TAP	65	96	7
TAP	65	144	1
TAP	65	144	6
TAP	65	192	2
TAP	65	216	3
TAP	65	240	2
TAP	65	288	0
TAP	65	288	7
TAP	65	336	5
TAP	65	360	4
TAP	66	0	5
TAP	66	48	1
TAP	66	48	3
TAP	66	96	4
TAP	66	96	6
TAP	66	144	2
TAP	66	168	0
TAP	66	192	2
TAP	66	240	5
TAP	66	264	7
TAP	66	288	5
TAP	66	336	1
TAP	66	336	6
TAP	67	0	2
TAP	67	24	7
TAP	67	48	2
TAP	67	72	7
TAP	67	96	1
TAP	67	120	6
TAP	67	144	1
TAP	67	168	6
TAP	67	192	0
TAP	67	216	5
TAP	67	240	0
TAP	67	264	5
HLD	67	288	7	96
TAP	68	0	0
TAP	68	48	2
TAP	68	72	3
TAP	68	96	1
TAP	68	120	4
TAP	68	144	0
TAP	68	168	5
TAP	68	192	1
TAP	68	216	6
TAP	68	240	2
TAP	68	264	7
TAP	68	288	3
TAP	68	336	1
TAP	68	336	6
TAP	69	0	2
TAP	69	0	3
TAP	69	48	0
TAP	69	48	7
TAP	69	96	4
STR	69	96	5
SCR	69	96	5	96	96	2
TAP	69	144	3
TAP	69	192	2
TAP	69	336	3
TAP	69	336	4
TAP	70	0	0
TAP	70	0	1
TAP	70	48	3
TAP	70	48	4
TAP	70	96	6
TAP	70	96	7
TAP	70	144	5
TAP	70	168	4
TAP	70	192	6
TAP	70	216	3
TAP	70	240	7
TAP	70	264	2
TAP	70	288	6
TAP	70	312	1
TAP	70	336	5
TAP	70	360	0
STR	71	0	4
SI_	71	0	4	96	24	0
TAP	71	48	1
STR	71	96	3
SI_	71	96	3	96	24	7
TAP	71	144	6
STR	71	192	4
SF_	71	192	4	96	48	0
BRK	71	288	4

T_REC_TAP	603
T_REC_BRK	9
T_REC_XTP	0
T_REC_HLD	63
T_REC_XHO	0
T_REC_STR	50
T_REC_BST	0
T_REC_XST	0
T_REC_TTP	0
T_REC_THO	0
T_REC_SLD	52
T_REC_ALL	777
T_NUM_TAP	653
T_NUM_BRK	9
T_NUM_HLD	63
T_NUM_SLD	52
T_NUM_ALL	777
T_JUDGE_TAP	662
T_JUDGE_HLD	121
T_JUDGE_SLD	52
T_JUDGE_ALL	835
TTM_EACHPAIRS	196
TTM_SCR_TAP	326500
TTM_SCR_BRK	23400
TTM_SCR_HLD	63000
TTM_SCR_SLD	78000
TTM_SCR_ALL	490900
TTM_SCR_S	475300
TTM_SCR_SS	490000
TTM_RAT_ACV	10018

