VERSION	0.00.00	1.03.00
FES_MODE	0
BPM_DEF	125.000	125.000	125.000	125.000
MET_DEF	4	4
RESOLUTION	384
CLK_DEF	384
COMPATIBLE_CODE	MA2

BPM	0	0	125.000
MET	0	0	4	4

TAP	2	0	3
TAP	2	0	4
TAP	2	48	2
TAP	2	72	3
STR	2	96	2
SXR	2	96	2	96	96	4
TAP	2	144	6
TAP	2	192	6
TAP	2	336	5
TAP	3	0	3
TAP	3	0	4
TAP	3	48	2
STR	3	96	1
SCR	3	96	1	96	96	6
TAP	3	144	0
TAP	3	192	7
TAP	3	336	1
TAP	3	336	6
TAP	4	0	0
TAP	4	0	7
TAP	4	48	6
STR	4	96	5
SCR	4	96	5	96	96	2
TAP	4	144	4
TAP	4	192	3
TAP	4	336	2
TAP	4	336	5
TAP	5	0	3
TAP	5	0	4
TAP	5	48	5
TAP	5	72	4
STR	5	96	5
SXL	5	96	5	96	96	3
TAP	5	144	1
STR	5	192	1
SI_	5	192	1	96	48	4
HLD	6	0	6	288
TAP	6	96	5
TAP	6	144	4
TAP	6	192	3
TAP	6	240	2
TAP	6	288	1
TAP	6	336	0
TAP	6	336	7
STR	7	0	0
SXL	7	0	0	96	192	3
STR	7	0	7
SXR	7	0	7	96	192	4
BRK	7	96	0
BRK	7	96	7
HLD	8	0	2	96
TAP	8	0	3
TAP	8	96	4
TAP	8	144	3
TAP	8	144	5
HLD	8	192	6	96
TAP	8	288	7
TAP	9	0	4
HLD	9	0	5	96
TAP	9	96	3
TAP	9	144	2
TAP	9	144	4
HLD	9	192	1	96
TAP	9	288	0
TAP	9	336	2
TAP	9	360	3
HLD	10	0	2	96
TAP	10	96	4
TAP	10	144	3
TAP	10	144	5
HLD	10	192	6	96
TAP	10	288	7
HLD	11	0	4	72
TAP	11	0	5
HLD	11	72	3	72
TAP	11	144	2
HLD	11	192	2	96
TAP	11	240	3
TAP	11	288	3
TAP	11	336	5
TAP	11	360	4
TAP	12	0	5
TAP	12	48	6
TAP	12	96	7
HLD	12	144	0	144
TAP	12	192	6
TAP	12	240	5
TAP	12	288	4
TAP	13	0	6
TAP	13	48	4
TAP	13	96	1
TAP	13	144	3
TAP	13	192	5
TAP	13	240	2
TAP	13	288	3
TAP	13	288	4
TAP	14	0	2
TAP	14	48	1
TAP	14	96	0
HLD	14	144	7	144
TAP	14	192	1
TAP	14	240	2
TAP	14	288	3
TAP	15	0	1
TAP	15	0	5
TAP	15	48	0
TAP	15	48	4
STR	15	96	3
SV_	15	96	3	96	48	1
STR	15	96	7
SV_	15	96	7	96	48	5
TAP	15	120	3
TAP	15	120	7
TAP	15	336	0
STR	16	0	0
SCR	16	0	0	96	48	3
HLD	16	144	5	96
TAP	16	192	4
HLD	16	240	1	96
TAP	16	288	2
HLD	16	336	6	96
TAP	17	0	7
STR	17	48	5
SCL	17	48	5	96	96	7
TAP	17	72	5
TAP	17	336	7
STR	18	0	7
SCL	18	0	7	96	48	4
HLD	18	144	2	96
TAP	18	192	3
HLD	18	240	6	96
TAP	18	288	5
HLD	18	336	1	96
TAP	19	0	0
STR	19	48	2
SCR	19	48	2	96	96	0
TAP	19	72	2
TAP	19	336	0
TAP	19	336	1
TAP	20	0	2
TAP	20	48	3
TAP	20	48	4
STR	20	96	5
SCL	20	96	5	96	96	0
TAP	20	144	6
TAP	20	192	7
TAP	20	336	6
TAP	20	336	7
TAP	21	0	5
TAP	21	48	3
TAP	21	48	4
STR	21	96	2
SCR	21	96	2	96	96	7
TAP	21	144	1
TAP	21	192	0
TAP	21	336	0
TAP	21	336	7
HLD	22	0	1	48
HLD	22	0	6	48
TAP	22	72	1
TAP	22	72	6
TAP	22	144	0
TAP	22	144	7
HLD	22	192	1	48
HLD	22	192	3	48
HLD	22	264	4	48
HLD	22	264	6	48
TAP	22	336	3
STR	23	0	3
SCL	23	0	3	96	144	4
TAP	23	288	3
TAP	23	288	4
TAP	24	0	0
TAP	24	0	7
TAP	24	24	0
TAP	24	24	7
TAP	24	48	1
TAP	24	48	6
TAP	24	96	3
TAP	24	96	4
TAP	24	120	3
TAP	24	120	4
BRK	24	168	1
BRK	24	168	6
TAP	24	288	0
TAP	24	288	7
TAP	24	312	0
TAP	24	312	7
TAP	25	0	1
HLD	25	0	6	96
TAP	25	48	3
TAP	25	96	7
TAP	25	144	0
TAP	25	144	5
TAP	25	192	2
TAP	25	192	7
TAP	25	240	1
TAP	25	264	0
TAP	25	288	1
TAP	25	336	4
TAP	25	336	5
TAP	26	0	3
TAP	26	0	6
TAP	26	48	1
TAP	26	48	4
STR	26	96	6
SI_	26	96	6	96	48	2
STR	26	96	7
SI_	26	96	7	96	48	3
TAP	26	120	6
TAP	26	120	7
TAP	26	288	0
TAP	26	288	5
STR	27	0	6
SCL	27	0	6	96	48	3
TAP	27	48	3
TAP	27	96	2
TAP	27	144	1
STR	27	192	0
SCR	27	192	0	96	48	3
TAP	27	240	7
TAP	27	288	6
TAP	27	336	5
STR	28	0	4
SI_	28	0	4	96	48	0
TAP	28	48	4
STR	28	96	2
SI_	28	96	2	96	48	6
TAP	28	144	2
TAP	28	192	7
TAP	28	288	0
TAP	28	288	7
TAP	28	312	0
TAP	28	312	7
HLD	29	0	1	96
TAP	29	0	6
TAP	29	48	4
TAP	29	96	0
TAP	29	144	2
TAP	29	144	7
TAP	29	192	0
TAP	29	192	5
TAP	29	240	6
TAP	29	264	7
TAP	29	288	6
TAP	29	336	2
TAP	29	336	3
TAP	30	0	1
TAP	30	0	4
TAP	30	48	3
TAP	30	48	6
STR	30	96	0
SI_	30	96	0	96	48	4
STR	30	96	1
SI_	30	96	1	96	48	5
TAP	30	120	0
TAP	30	120	1
TAP	30	288	2
TAP	30	288	7
STR	31	0	1
SCR	31	0	1	96	48	4
TAP	31	48	4
TAP	31	96	5
TAP	31	144	6
STR	31	192	7
SCL	31	192	7	96	48	4
TAP	31	240	0
TAP	31	288	1
TAP	31	336	2
STR	32	0	3
SI_	32	0	3	96	48	7
TAP	32	48	3
STR	32	96	5
SI_	32	96	5	96	48	1
TAP	32	144	5
STR	32	192	0
SI_	32	192	0	96	48	4
TAP	32	240	0
TAP	32	288	7
TAP	32	336	6
HLD	33	0	5	96
TAP	33	96	4
TAP	33	144	5
TAP	33	192	6
TAP	33	192	7
TAP	33	240	5
TAP	33	264	4
TAP	33	288	5
TAP	33	336	2
TAP	33	336	3
TAP	34	0	0
TAP	34	0	1
TAP	34	48	6
TAP	34	48	7
TAP	34	96	4
TAP	34	96	5
TAP	34	144	2
TAP	34	144	3
STR	34	192	0
SI_	34	192	0	96	48	5
STR	34	192	1
SI_	34	192	1	96	48	4
BRK	34	288	0
BRK	34	288	1
STR	35	0	7
SXR	35	0	7	96	96	7
STR	35	192	0
SXL	35	192	0	96	96	0
STR	36	0	7
SI_	36	0	7	96	48	3
TAP	36	96	0
TAP	36	144	1
TAP	36	192	2
HLD	36	192	3	72
HLD	36	264	4	72
TAP	36	336	5
STR	37	0	5
SXL	37	0	5	96	96	3
STR	37	192	2
SXR	37	192	2	96	96	4
HLD	38	0	5	48
TAP	38	48	4
HLD	38	96	2	48
TAP	38	144	3
TAP	38	192	3
TAP	38	192	4
TAP	38	288	0
TAP	38	336	7
TAP	39	0	1
TAP	39	48	2
TAP	39	96	3
TAP	39	144	4
HLD	39	168	4	72
TAP	39	240	3
TAP	39	288	2
TAP	39	336	1
TAP	40	0	6
TAP	40	48	5
TAP	40	96	4
TAP	40	144	3
HLD	40	168	3	72
TAP	40	240	4
TAP	40	288	5
TAP	40	336	6
TAP	41	0	5
TAP	41	0	7
TAP	41	48	1
TAP	41	96	0
TAP	41	96	2
TAP	41	144	3
TAP	41	144	7
HLD	41	192	4	48
HLD	41	192	6	48
HLD	41	264	1	48
HLD	41	264	3	48
TAP	41	336	4
STR	42	0	4
SCR	42	0	4	96	144	3
TAP	42	336	0
TAP	42	360	7
STR	43	0	0
SUL	43	0	0	96	96	7
TAP	43	288	4
HLD	43	312	4	72
HLD	44	0	3	96
TAP	44	96	4
TAP	44	144	3
TAP	44	192	6
TAP	44	240	2
TAP	44	264	3
TAP	44	288	2
TAP	44	336	1
TAP	45	0	2
TAP	45	48	3
TAP	45	96	4
HLD	45	120	4	72
TAP	45	192	3
STR	45	288	2
SCR	45	288	2	96	48	5
TAP	46	0	6
TAP	46	144	5
STR	46	192	5
SCL	46	192	5	96	48	2
TAP	46	288	1
TAP	47	0	2
TAP	47	0	3
TAP	47	96	3
TAP	47	96	4
TAP	47	192	4
TAP	47	192	5
TAP	47	288	3
HLD	47	312	3	72
HLD	48	0	4	96
TAP	48	96	3
TAP	48	144	4
TAP	48	192	1
TAP	48	240	5
TAP	48	264	4
TAP	48	288	5
TAP	48	336	6
TAP	49	0	5
TAP	49	48	4
TAP	49	96	0
HLD	49	120	0	72
TAP	49	192	7
STR	49	288	5
SCL	49	288	5	96	48	2
TAP	50	0	1
TAP	50	144	2
STR	50	192	2
SCR	50	192	2	96	48	5
TAP	50	288	6
TAP	51	0	4
TAP	51	0	5
TAP	51	48	0
TAP	51	48	7
TAP	51	96	2
TAP	51	96	3
TAP	51	144	0
TAP	51	144	7
STR	51	192	4
SI_	51	192	4	96	48	0
TAP	51	192	5
TAP	51	288	7
TAP	51	312	7
HLD	52	0	1	96
TAP	52	0	5
TAP	52	48	7
TAP	52	96	3
TAP	52	144	2
TAP	52	144	4
TAP	52	192	3
TAP	52	192	5
TAP	52	240	6
TAP	52	264	7
TAP	52	288	6
TAP	52	336	0
TAP	52	336	1
TAP	53	0	2
TAP	53	0	7
TAP	53	48	0
TAP	53	48	5
STR	53	96	2
SI_	53	96	2	96	48	6
STR	53	96	3
SI_	53	96	3	96	48	7
TAP	53	120	2
TAP	53	120	3
TAP	53	288	1
TAP	53	288	4
STR	54	0	2
SCL	54	0	2	96	48	7
TAP	54	48	7
TAP	54	96	6
TAP	54	144	5
STR	54	192	4
SCR	54	192	4	96	48	7
TAP	54	240	3
TAP	54	288	2
TAP	54	336	1
STR	55	0	0
SI_	55	0	0	96	48	4
TAP	55	48	0
STR	55	96	6
SI_	55	96	6	96	48	2
TAP	55	144	6
TAP	55	192	3
TAP	55	288	0
TAP	55	288	7
TAP	55	312	0
TAP	55	312	7
TAP	56	0	2
HLD	56	0	6	96
TAP	56	48	0
TAP	56	96	4
TAP	56	144	3
TAP	56	144	5
TAP	56	192	2
TAP	56	192	4
TAP	56	240	1
TAP	56	264	0
TAP	56	288	1
TAP	56	336	6
TAP	56	336	7
TAP	57	0	0
TAP	57	0	5
TAP	57	48	2
TAP	57	48	7
STR	57	96	4
SI_	57	96	4	96	48	0
STR	57	96	5
SI_	57	96	5	96	48	1
TAP	57	120	4
TAP	57	120	5
TAP	57	288	3
TAP	57	288	6
STR	58	0	5
SCR	58	0	5	96	48	0
TAP	58	48	0
TAP	58	96	1
TAP	58	144	2
STR	58	192	3
SCL	58	192	3	96	48	0
TAP	58	240	4
TAP	58	288	5
TAP	58	336	6
STR	59	0	7
SI_	59	0	7	96	48	3
TAP	59	48	7
STR	59	96	1
SI_	59	96	1	96	48	5
TAP	59	144	1
STR	59	192	4
SI_	59	192	4	96	48	0
TAP	59	240	4
TAP	59	288	3
TAP	59	336	2
HLD	60	0	1	96
TAP	60	96	0
TAP	60	144	1
TAP	60	192	2
TAP	60	192	3
TAP	60	240	4
TAP	60	264	3
TAP	60	288	4
TAP	60	336	1
TAP	60	336	6
TAP	61	0	0
TAP	61	0	7
TAP	61	48	1
TAP	61	48	2
TAP	61	96	3
TAP	61	96	4
TAP	61	144	5
TAP	61	144	6
STR	61	192	0
SI_	61	192	0	96	48	4
STR	61	192	7
SI_	61	192	7	96	48	3
BRK	61	288	0
BRK	61	288	7
TAP	62	0	2
TAP	62	48	3
TAP	62	96	1
TAP	62	96	4
TAP	62	144	0
TAP	62	168	7
TAP	62	192	0
TAP	62	240	6
TAP	62	240	7
TAP	62	288	0
HLD	62	288	5	96
TAP	63	0	4
TAP	63	48	5
TAP	63	96	3
TAP	63	96	6
TAP	63	144	7
TAP	63	168	0
TAP	63	192	7
TAP	63	240	0
TAP	63	240	1
TAP	63	288	2
STR	63	288	7
SI_	63	288	7	96	48	3
TAP	64	0	0
TAP	64	48	1
TAP	64	96	2
TAP	64	96	3
TAP	64	144	5
TAP	64	168	4
TAP	64	192	5
TAP	64	240	2
TAP	64	240	3
TAP	64	288	1
TAP	64	288	4
STR	65	0	2
SI_	65	0	2	96	48	7
TAP	65	48	3
TAP	65	96	4
TAP	65	144	5
STR	65	192	6
SI_	65	192	6	96	48	3
TAP	65	240	1
TAP	65	288	1
TAP	66	0	2
STR	66	0	3
SI_	66	0	3	96	48	7
TAP	66	48	1
TAP	66	96	0
STR	66	192	0
SI_	66	192	0	96	48	4
TAP	66	192	7
TAP	66	240	6
TAP	66	288	5
STR	67	0	4
SI_	67	0	4	96	48	0
TAP	67	0	5
TAP	67	48	6
TAP	67	96	7
TAP	67	192	1
TAP	67	192	6
TAP	67	240	2
TAP	67	240	5
STR	67	288	3
SCL	67	288	3	96	48	0
STR	67	288	4
SCR	67	288	4	96	48	7
TAP	68	96	6
TAP	68	144	5
TAP	68	144	7
TAP	68	192	4
TAP	68	240	3
TAP	68	240	5
TAP	68	288	2
TAP	68	336	1
TAP	68	336	3
STR	69	0	0
SI_	69	0	0	96	48	4
TAP	69	48	7
TAP	69	96	6
TAP	69	144	5
TAP	69	192	3
TAP	69	192	6
TAP	69	240	1
TAP	69	240	4
TAP	69	288	3
TAP	69	312	4
TAP	69	336	3
TAP	69	360	4
STR	70	0	2
SXR	70	0	2	96	96	4
TAP	70	96	6
STR	70	192	5
SXL	70	192	5	96	96	3
TAP	70	288	1
STR	71	0	2
SI_	71	0	2	96	48	6
TAP	71	48	2
STR	71	96	4
SI_	71	96	4	96	48	0
TAP	71	144	4
STR	71	192	7
SF_	71	192	7	96	48	3
BRK	71	288	7

T_REC_TAP	444
T_REC_BRK	9
T_REC_XTP	0
T_REC_HLD	47
T_REC_XHO	0
T_REC_STR	72
T_REC_BST	0
T_REC_XST	0
T_REC_TTP	0
T_REC_THO	0
T_REC_SLD	72
T_REC_ALL	644
T_NUM_TAP	516
T_NUM_BRK	9
T_NUM_HLD	47
T_NUM_SLD	72
T_NUM_ALL	644
T_JUDGE_TAP	525
T_JUDGE_HLD	88
T_JUDGE_SLD	72
T_JUDGE_ALL	685
TTM_EACHPAIRS	130
TTM_SCR_TAP	258000
TTM_SCR_BRK	23400
TTM_SCR_HLD	47000
TTM_SCR_SLD	108000
TTM_SCR_ALL	436400
TTM_SCR_S	422450
TTM_SCR_SS	435500
TTM_RAT_ACV	10020

