VERSION	0.00.00	1.03.00
FES_MODE	0
BPM_DEF	125.000	125.000	125.000	125.000
MET_DEF	4	4
RESOLUTION	384
CLK_DEF	384
COMPATIBLE_CODE	MA2

BPM	0	0	125.000
MET	0	0	4	4

HLD	2	0	1	96
HLD	2	96	2	96
HLD	2	192	3	96
TAP	2	288	4
HLD	3	0	6	96
HLD	3	96	5	96
HLD	3	192	4	96
TAP	3	288	3
HLD	4	0	0	96
HLD	4	96	2	96
HLD	4	192	4	96
TAP	4	288	6
HLD	5	0	7	96
HLD	5	96	5	96
HLD	5	192	3	96
TAP	5	288	1
STR	6	0	0
SCR	6	0	0	96	192	7
TAP	7	0	3
TAP	7	0	4
TAP	7	96	1
TAP	7	96	6
TAP	8	0	2
TAP	8	48	2
TAP	8	96	4
TAP	8	144	4
TAP	8	192	3
TAP	8	288	1
TAP	8	288	7
TAP	9	0	5
TAP	9	48	5
TAP	9	96	3
TAP	9	144	3
TAP	9	192	4
TAP	9	288	0
TAP	9	288	6
TAP	10	0	1
TAP	10	48	1
TAP	10	96	3
TAP	10	144	3
TAP	10	192	2
TAP	10	288	6
TAP	10	288	7
TAP	11	0	6
TAP	11	48	6
TAP	11	96	4
TAP	11	144	4
TAP	11	192	5
TAP	11	288	0
TAP	11	288	1
TAP	12	0	2
TAP	12	48	2
TAP	12	96	3
TAP	12	144	3
TAP	12	192	2
TAP	12	192	4
TAP	12	288	3
TAP	12	288	7
TAP	13	0	5
TAP	13	48	5
TAP	13	96	4
TAP	13	144	4
TAP	13	192	3
TAP	13	192	5
TAP	13	288	0
TAP	13	288	4
TAP	14	0	1
TAP	14	48	1
TAP	14	96	2
TAP	14	144	3
TAP	14	192	4
TAP	14	192	5
TAP	14	288	0
TAP	14	288	3
TAP	15	0	6
TAP	15	48	6
TAP	15	96	5
TAP	15	144	4
TAP	15	192	2
TAP	15	192	3
TAP	15	288	4
TAP	15	288	7
HLD	16	0	5	144
TAP	16	144	6
HLD	16	192	6	144
TAP	16	336	7
STR	17	0	7
SCL	17	0	7	96	96	4
SCR	17	0	7	96	96	2
HLD	18	0	2	144
TAP	18	144	1
HLD	18	192	1	144
TAP	18	336	0
STR	19	0	0
SCL	19	0	0	96	96	5
SCR	19	0	0	96	96	3
TAP	20	0	4
TAP	20	0	5
TAP	20	48	4
TAP	20	48	5
TAP	20	192	2
TAP	20	192	3
TAP	20	240	2
TAP	20	240	3
TAP	21	0	5
TAP	21	0	7
TAP	21	48	5
TAP	21	48	7
TAP	21	192	0
TAP	21	192	2
TAP	21	240	0
TAP	21	240	2
STR	22	0	7
SUL	22	0	7	96	96	3
STR	22	192	0
SUR	22	192	0	96	96	4
STR	23	0	5
SCR	23	0	5	96	192	2
TAP	24	0	2
TAP	24	0	5
TAP	24	48	2
TAP	24	48	5
TAP	24	96	3
TAP	24	120	4
BRK	24	168	1
BRK	24	168	6
STR	24	288	0
SUR	24	288	0	96	48	4
HLD	25	0	6	96
TAP	25	96	5
TAP	25	144	4
TAP	25	192	3
TAP	25	240	2
TAP	25	240	4
TAP	25	288	3
TAP	25	336	5
TAP	26	0	4
TAP	26	0	6
TAP	26	48	3
TAP	26	48	5
TAP	26	96	2
STR	26	96	4
SUR	26	96	4	96	48	0
TAP	26	192	1
STR	26	288	1
SUR	26	288	1	96	48	5
TAP	27	0	6
TAP	27	96	7
TAP	27	144	3
TAP	27	192	5
TAP	27	240	1
TAP	27	288	4
TAP	27	336	2
STR	28	0	6
SCL	28	0	6	96	96	1
STR	28	288	7
SUL	28	288	7	96	48	3
HLD	29	0	1	96
TAP	29	96	2
TAP	29	144	3
TAP	29	192	4
TAP	29	240	3
TAP	29	240	5
TAP	29	288	4
TAP	29	336	2
TAP	30	0	1
TAP	30	0	3
TAP	30	48	2
TAP	30	48	4
STR	30	96	3
SUL	30	96	3	96	48	7
TAP	30	96	5
TAP	30	192	6
STR	30	288	6
SUL	30	288	6	96	48	2
TAP	31	0	1
TAP	31	96	0
TAP	31	144	4
TAP	31	192	2
TAP	31	240	6
TAP	31	288	3
TAP	31	336	5
STR	32	0	1
SCR	32	0	1	96	96	6
TAP	32	288	0
TAP	32	336	1
TAP	32	336	7
TAP	33	0	2
TAP	33	0	6
TAP	33	96	7
TAP	33	144	0
TAP	33	144	6
TAP	33	192	1
TAP	33	192	5
TAP	33	288	3
TAP	33	288	4
TAP	33	336	2
TAP	33	336	5
BRK	34	0	1
BRK	34	0	6
TAP	34	192	1
TAP	34	192	3
TAP	34	288	4
TAP	34	288	6
STR	35	0	0
SCR	35	0	0	96	48	3
TAP	35	0	7
TAP	35	144	6
STR	35	192	6
SCL	35	192	6	96	48	3
TAP	35	336	0
STR	36	0	0
SXL	36	0	0	96	144	5
TAP	37	0	0
STR	37	0	7
SCL	37	0	7	96	48	4
TAP	37	144	1
STR	37	192	1
SCR	37	192	1	96	48	4
TAP	37	336	7
STR	38	0	7
SXR	38	0	7	96	144	2
TAP	39	0	0
TAP	39	0	7
TAP	39	48	6
TAP	39	96	5
TAP	39	144	4
TAP	39	192	3
TAP	39	288	5
TAP	39	288	7
TAP	40	0	0
TAP	40	0	7
TAP	40	48	1
TAP	40	96	2
TAP	40	144	3
TAP	40	192	4
TAP	40	288	0
TAP	40	288	2
TAP	41	0	0
TAP	41	0	7
TAP	41	48	1
TAP	41	96	6
TAP	41	144	2
HLD	41	192	5	72
HLD	41	264	4	72
TAP	41	336	3
STR	42	0	2
SCL	42	0	2	96	144	5
TAP	42	336	3
TAP	42	336	4
STR	43	0	3
SUL	43	0	3	96	96	7
STR	43	0	4
SUR	43	0	4	96	96	0
HLD	43	288	2	96
TAP	44	0	3
TAP	44	96	5
TAP	44	144	4
TAP	44	192	5
TAP	44	288	2
TAP	44	336	3
TAP	45	0	1
TAP	45	96	4
TAP	45	144	3
TAP	45	192	3
TAP	45	192	4
HLD	45	288	5	96
TAP	46	0	4
TAP	46	96	2
TAP	46	144	3
TAP	46	192	2
TAP	46	288	5
TAP	46	336	4
STR	47	0	6
SCR	47	0	6	96	96	1
HLD	47	288	2	96
TAP	48	0	3
TAP	48	96	5
TAP	48	144	4
TAP	48	192	3
TAP	48	192	6
TAP	48	288	2
TAP	48	336	3
TAP	49	0	1
TAP	49	0	4
TAP	49	96	3
TAP	49	96	4
TAP	49	192	3
TAP	49	192	6
TAP	49	288	4
TAP	49	336	3
TAP	49	336	5
TAP	50	0	2
TAP	50	0	6
TAP	50	96	3
TAP	50	144	2
TAP	50	144	4
TAP	50	192	1
TAP	50	192	5
TAP	50	240	0
TAP	50	240	7
TAP	50	288	1
TAP	50	288	6
TAP	50	336	2
TAP	50	336	5
TAP	51	0	3
TAP	51	48	3
TAP	51	96	4
TAP	51	144	4
BRK	51	192	1
BRK	51	192	6
STR	51	288	0
SUL	51	288	0	96	48	4
STR	51	288	1
SUR	51	288	1	96	48	5
TAP	52	96	6
TAP	52	144	7
TAP	52	192	0
TAP	52	192	6
TAP	52	240	1
TAP	52	240	5
TAP	52	288	2
TAP	52	288	4
TAP	52	336	3
TAP	53	0	7
TAP	53	48	0
TAP	53	96	1
TAP	53	96	4
TAP	53	144	2
TAP	53	144	5
STR	53	192	3
SUL	53	192	3	96	48	7
STR	53	192	6
SUL	53	192	6	96	48	2
HLD	54	0	1	96
TAP	54	0	4
TAP	54	96	2
TAP	54	144	3
TAP	54	192	3
HLD	54	192	6	96
TAP	54	288	5
TAP	54	336	4
STR	55	0	2
SLL	55	0	2	96	96	4
STR	55	0	5
SLR	55	0	5	96	96	3
STR	55	288	6
SUL	55	288	6	96	48	2
STR	55	288	7
SUR	55	288	7	96	48	3
TAP	56	96	1
TAP	56	144	0
TAP	56	192	1
TAP	56	192	7
TAP	56	240	2
TAP	56	240	6
TAP	56	288	3
TAP	56	288	5
TAP	56	336	4
TAP	57	0	0
TAP	57	48	7
TAP	57	96	3
TAP	57	96	6
TAP	57	144	2
TAP	57	144	5
STR	57	192	1
SUR	57	192	1	96	48	5
STR	57	192	4
SUR	57	192	4	96	48	0
TAP	58	0	3
HLD	58	0	6	96
TAP	58	96	5
TAP	58	144	4
HLD	58	192	1	96
TAP	58	192	4
TAP	58	288	2
TAP	58	336	3
STR	59	0	2
SXR	59	0	2	96	192	7
STR	59	0	6
SXR	59	0	6	96	192	3
HLD	60	0	1	96
HLD	60	0	4	96
HLD	60	192	3	96
HLD	60	192	6	96
STR	61	0	1
SXL	61	0	1	96	192	4
STR	61	0	5
SXL	61	0	5	96	192	0
TAP	62	0	1
TAP	62	48	1
TAP	62	96	4
TAP	62	144	2
HLD	62	192	5	96
TAP	62	288	4
TAP	62	336	4
TAP	63	0	6
TAP	63	48	5
TAP	63	96	4
TAP	63	144	3
TAP	63	192	2
TAP	63	288	0
TAP	63	288	5
TAP	64	0	1
TAP	64	48	2
TAP	64	96	3
TAP	64	144	2
TAP	64	144	4
TAP	64	192	6
TAP	64	240	5
TAP	64	288	4
TAP	64	336	3
TAP	64	336	5
STR	65	0	2
SI_	65	0	2	96	48	7
STR	65	96	5
SI_	65	96	5	96	48	0
TAP	65	192	3
TAP	65	288	1
TAP	65	288	4
TAP	66	0	6
TAP	66	48	6
TAP	66	96	3
TAP	66	144	5
HLD	66	192	2	96
TAP	66	288	3
TAP	66	336	3
TAP	67	0	1
TAP	67	48	2
TAP	67	96	3
TAP	67	144	4
TAP	67	192	5
TAP	67	288	2
TAP	67	288	7
TAP	68	0	6
TAP	68	48	5
TAP	68	96	4
TAP	68	144	3
TAP	68	144	5
TAP	68	192	1
TAP	68	240	2
TAP	68	288	3
TAP	68	336	2
TAP	68	336	4
STR	69	0	5
SI_	69	0	5	96	48	0
STR	69	96	2
SI_	69	96	2	96	48	7
TAP	69	192	4
TAP	69	288	3
TAP	69	288	6
STR	70	0	7
SF_	70	0	7	96	48	3
STR	70	192	0
SF_	70	192	0	96	48	4
STR	71	0	2
SCR	71	0	2	96	96	7
STR	71	0	5
SCL	71	0	5	96	96	0
BRK	71	288	1
BRK	71	288	6

T_REC_TAP	326
T_REC_BRK	8
T_REC_XTP	0
T_REC_HLD	33
T_REC_XHO	0
T_REC_STR	46
T_REC_BST	0
T_REC_XST	0
T_REC_TTP	0
T_REC_THO	0
T_REC_SLD	48
T_REC_ALL	461
T_NUM_TAP	372
T_NUM_BRK	8
T_NUM_HLD	33
T_NUM_SLD	48
T_NUM_ALL	461
T_JUDGE_TAP	380
T_JUDGE_HLD	70
T_JUDGE_SLD	48
T_JUDGE_ALL	498
TTM_EACHPAIRS	97
TTM_SCR_TAP	186000
TTM_SCR_BRK	20800
TTM_SCR_HLD	33000
TTM_SCR_SLD	72000
TTM_SCR_ALL	311800
TTM_SCR_S	301700
TTM_SCR_SS	311000
TTM_RAT_ACV	10025

