VERSION	0.00.00	1.03.00
FES_MODE	0
BPM_DEF	125.000	125.000	125.000	125.000
MET_DEF	4	4
RESOLUTION	384
CLK_DEF	384
COMPATIBLE_CODE	MA2

BPM	0	0	125.000
MET	0	0	4	4

TAP	2	0	2
TAP	2	96	2
TAP	2	192	3
TAP	3	0	5
TAP	3	96	5
TAP	3	192	4
TAP	4	0	2
TAP	4	96	3
TAP	4	192	2
TAP	5	0	5
TAP	5	96	4
TAP	5	192	5
STR	6	0	1
SCR	6	0	1	96	192	6
TAP	7	0	0
TAP	7	0	7
TAP	7	96	1
TAP	7	96	6
TAP	8	0	2
TAP	8	96	3
TAP	8	192	2
TAP	8	288	1
TAP	8	288	4
TAP	9	0	5
TAP	9	96	4
TAP	9	192	5
TAP	9	288	3
TAP	9	288	6
TAP	10	0	2
TAP	10	96	3
TAP	10	192	2
TAP	10	192	3
TAP	10	288	1
TAP	10	288	4
TAP	11	0	5
TAP	11	96	4
TAP	11	192	3
TAP	11	192	6
TAP	12	0	1
TAP	12	96	0
TAP	12	192	0
TAP	12	192	1
TAP	12	288	2
TAP	12	288	7
TAP	13	0	6
TAP	13	96	7
TAP	13	192	6
TAP	13	192	7
TAP	13	288	0
TAP	13	288	5
TAP	14	0	1
TAP	14	96	0
TAP	14	192	2
TAP	14	192	7
TAP	14	288	3
TAP	14	288	6
TAP	15	0	7
TAP	15	96	0
TAP	15	96	6
TAP	15	192	1
TAP	15	192	5
HLD	16	0	6	192
HLD	16	192	5	192
STR	17	0	4
SI_	17	0	4	96	96	0
HLD	18	0	1	192
HLD	18	192	2	192
STR	19	0	3
SI_	19	0	3	96	96	7
TAP	20	0	4
TAP	20	0	5
TAP	20	192	2
TAP	20	192	3
TAP	21	0	4
TAP	21	0	6
TAP	21	192	1
TAP	21	192	3
STR	22	0	7
SI_	22	0	7	96	96	3
STR	22	192	0
SI_	22	192	0	96	96	4
STR	23	0	7
SSR	23	0	7	96	192	3
HLD	24	0	1	96
HLD	24	0	6	96
BRK	24	168	1
BRK	24	168	6
TAP	25	0	2
TAP	25	96	1
TAP	25	96	3
TAP	25	192	5
TAP	25	288	4
TAP	25	288	6
TAP	26	0	2
TAP	26	0	3
TAP	26	96	1
TAP	26	96	4
TAP	26	192	0
TAP	26	192	5
TAP	27	0	6
TAP	27	96	5
TAP	27	96	7
TAP	27	192	1
TAP	27	288	0
TAP	27	288	2
STR	28	0	1
SSR	28	0	1	96	192	5
TAP	28	0	6
TAP	29	0	5
TAP	29	96	4
TAP	29	96	6
TAP	29	192	2
TAP	29	288	1
TAP	29	288	3
TAP	30	0	4
TAP	30	0	5
TAP	30	96	3
TAP	30	96	6
TAP	30	192	2
TAP	30	192	7
TAP	31	0	1
TAP	31	96	0
TAP	31	96	2
TAP	31	192	6
TAP	31	288	5
TAP	31	288	7
TAP	32	0	1
STR	32	0	6
SSL	32	0	6	96	192	2
HLD	33	0	2	96
HLD	33	0	3	96
HLD	33	192	4	96
HLD	33	192	5	96
STR	34	0	3
SI_	34	0	3	96	96	0
STR	34	0	4
SI_	34	0	4	96	96	7
HLD	35	0	1	192
HLD	35	192	2	192
HLD	36	0	3	192
TAP	36	192	4
TAP	36	288	4
HLD	37	0	6	192
HLD	37	192	5	192
HLD	38	0	4	192
TAP	38	192	3
HLD	39	0	2	96
TAP	39	96	3
HLD	39	192	5	96
TAP	39	288	4
HLD	40	0	1	96
TAP	40	96	2
HLD	40	192	6	96
TAP	40	288	5
HLD	41	0	1	96
TAP	41	96	0
HLD	41	192	6	96
TAP	41	288	7
STR	42	0	0
SCR	42	0	0	96	192	7
STR	43	0	0
SI_	43	0	0	96	96	3
STR	43	0	7
SI_	43	0	7	96	96	4
TAP	44	0	0
TAP	44	96	1
TAP	44	192	2
TAP	44	288	3
TAP	45	0	4
TAP	45	96	3
TAP	45	192	2
TAP	45	192	4
TAP	46	0	6
TAP	46	96	5
TAP	46	192	4
TAP	46	288	3
STR	47	0	2
SCL	47	0	2	96	192	5
TAP	48	0	7
TAP	48	96	6
TAP	48	192	5
TAP	48	288	4
TAP	49	0	3
TAP	49	0	4
TAP	49	96	2
TAP	49	96	5
TAP	49	192	1
TAP	49	192	6
TAP	50	0	1
TAP	50	96	2
TAP	50	192	3
TAP	50	288	4
STR	51	0	5
SCR	51	0	5	96	192	2
TAP	52	0	0
TAP	52	96	1
TAP	52	96	7
TAP	52	192	7
TAP	52	288	0
TAP	52	288	6
TAP	53	0	4
TAP	53	0	5
TAP	53	96	2
TAP	53	96	3
TAP	53	192	5
TAP	53	192	7
TAP	54	0	1
TAP	54	96	2
TAP	54	96	7
TAP	54	192	6
TAP	54	288	0
TAP	54	288	5
STR	55	0	1
SXL	55	0	1	96	192	5
TAP	55	0	4
TAP	56	0	7
TAP	56	96	0
TAP	56	96	6
TAP	56	192	0
TAP	56	288	1
TAP	56	288	7
TAP	57	0	2
TAP	57	0	3
TAP	57	96	4
TAP	57	96	5
TAP	57	192	0
TAP	57	192	2
TAP	58	0	6
TAP	58	96	0
TAP	58	96	5
TAP	58	192	1
TAP	58	288	2
TAP	58	288	7
TAP	59	0	3
STR	59	0	6
SXR	59	0	6	96	192	2
HLD	60	0	1	96
HLD	60	0	3	96
HLD	60	192	4	96
HLD	60	192	6	96
STR	61	0	0
SCR	61	0	0	96	96	3
STR	61	0	7
SCL	61	0	7	96	96	4
TAP	62	0	1
TAP	62	96	2
TAP	62	192	3
TAP	62	288	4
TAP	63	0	5
TAP	63	96	6
TAP	63	192	0
TAP	63	192	7
TAP	64	0	6
TAP	64	96	5
TAP	64	192	4
TAP	64	288	3
TAP	65	0	2
TAP	65	96	1
TAP	65	192	0
TAP	65	192	7
TAP	66	0	2
TAP	66	96	2
TAP	66	96	3
TAP	66	192	5
TAP	66	288	4
TAP	66	288	5
TAP	67	0	1
TAP	67	96	0
TAP	67	96	1
TAP	67	192	6
TAP	67	288	6
TAP	67	288	7
TAP	68	0	0
TAP	68	96	1
TAP	68	192	2
TAP	68	288	3
TAP	69	0	4
TAP	69	96	5
TAP	69	192	6
TAP	69	288	7
STR	70	0	0
SCR	70	0	0	96	96	3
STR	70	192	7
SCL	70	192	7	96	96	4
STR	71	0	0
SI_	71	0	0	96	96	4
BRK	71	288	1
BRK	71	288	6

T_REC_TAP	214
T_REC_BRK	4
T_REC_XTP	0
T_REC_HLD	26
T_REC_XHO	0
T_REC_STR	22
T_REC_BST	0
T_REC_XST	0
T_REC_TTP	0
T_REC_THO	0
T_REC_SLD	22
T_REC_ALL	288
T_NUM_TAP	236
T_NUM_BRK	4
T_NUM_HLD	26
T_NUM_SLD	22
T_NUM_ALL	288
T_JUDGE_TAP	240
T_JUDGE_HLD	72
T_JUDGE_SLD	22
T_JUDGE_ALL	334
TTM_EACHPAIRS	71
TTM_SCR_TAP	118000
TTM_SCR_BRK	10400
TTM_SCR_HLD	26000
TTM_SCR_SLD	33000
TTM_SCR_ALL	187400
TTM_SCR_S	181400
TTM_SCR_SS	187000
TTM_RAT_ACV	10021

