VERSION	0.00.00	1.03.00
FES_MODE	0
BPM_DEF	125.000	125.000	125.000	125.000
MET_DEF	4	4
RESOLUTION	384
CLK_DEF	384
COMPATIBLE_CODE	MA2

BPM	0	0	125.000
MET	0	0	4	4

TAP	2	0	0
TAP	2	192	0
TAP	3	0	1
TAP	3	96	1
TAP	3	192	1
TAP	4	0	2
TAP	4	192	2
TAP	5	0	3
TAP	5	96	3
TAP	5	192	3
TAP	5	192	4
HLD	6	0	3	288
HLD	6	0	4	288
BRK	7	0	3
BRK	7	0	4
TAP	8	0	4
TAP	8	192	4
TAP	9	0	5
TAP	9	96	5
TAP	9	192	5
TAP	10	0	6
TAP	10	192	6
TAP	11	0	7
TAP	11	96	7
TAP	11	192	0
TAP	11	192	7
TAP	12	0	0
TAP	12	96	0
TAP	12	192	0
TAP	13	0	1
TAP	13	96	1
TAP	13	192	1
TAP	14	0	2
TAP	14	96	2
TAP	14	192	2
TAP	15	0	3
TAP	15	96	4
TAP	15	192	3
STR	16	0	4
SI_	16	0	4	96	288	7
STR	18	0	3
SI_	18	0	3	96	288	0
TAP	20	0	0
TAP	20	96	0
TAP	20	192	0
TAP	20	192	1
TAP	21	0	7
TAP	21	96	7
TAP	21	192	6
TAP	21	192	7
TAP	22	0	0
TAP	22	0	7
TAP	22	192	0
TAP	22	192	7
STR	23	0	0
SI_	23	0	0	96	288	3
STR	23	0	7
SI_	23	0	7	96	288	4
TAP	25	0	2
TAP	25	0	3
TAP	25	192	2
TAP	25	192	3
TAP	26	0	2
TAP	26	96	3
TAP	26	192	2
TAP	27	0	4
TAP	27	0	5
TAP	27	192	4
TAP	27	192	5
TAP	28	0	5
TAP	28	96	4
TAP	28	192	5
TAP	29	0	6
TAP	29	0	7
TAP	29	192	6
TAP	29	192	7
TAP	30	0	6
TAP	30	96	7
TAP	30	192	6
TAP	31	0	0
TAP	31	0	1
TAP	31	192	0
TAP	31	192	1
HLD	32	0	0	192
HLD	32	0	1	192
TAP	33	0	1
TAP	33	0	7
TAP	33	192	0
TAP	33	192	6
HLD	34	0	1	192
HLD	34	0	6	192
STR	35	0	0
SI_	35	0	0	96	288	3
STR	37	0	7
SI_	37	0	7	96	288	4
TAP	39	0	3
TAP	39	96	3
TAP	39	192	2
TAP	39	192	4
TAP	40	0	4
TAP	40	96	4
TAP	40	192	3
TAP	40	192	5
TAP	41	0	3
TAP	41	96	3
TAP	41	192	4
TAP	41	288	4
HLD	42	0	3	192
HLD	42	0	4	192
HLD	43	0	2	192
HLD	43	0	5	192
TAP	44	0	3
TAP	44	192	3
TAP	45	0	4
TAP	45	192	4
TAP	46	0	2
TAP	46	192	2
HLD	47	0	5	192
TAP	48	0	6
TAP	48	192	6
TAP	49	0	7
TAP	49	192	7
TAP	50	0	0
TAP	50	192	0
HLD	51	0	1	192
TAP	52	0	0
TAP	52	0	1
TAP	52	96	0
TAP	52	96	1
TAP	52	192	0
TAP	52	192	7
TAP	52	288	0
TAP	52	288	7
TAP	53	0	0
TAP	53	96	7
TAP	53	192	0
TAP	54	0	6
TAP	54	0	7
TAP	54	96	6
TAP	54	96	7
TAP	54	192	0
TAP	54	192	7
TAP	54	288	0
TAP	54	288	7
HLD	55	0	0	192
HLD	55	0	7	192
TAP	56	0	1
TAP	56	0	7
TAP	56	96	1
TAP	56	96	7
TAP	56	192	0
TAP	56	192	6
TAP	56	288	0
TAP	56	288	6
TAP	57	0	0
TAP	57	96	7
TAP	57	192	0
TAP	58	0	7
TAP	58	96	7
TAP	58	192	6
TAP	58	288	6
HLD	59	0	4	192
HLD	59	0	5	192
TAP	60	0	2
TAP	60	0	3
TAP	60	192	4
TAP	60	192	5
HLD	61	0	2	192
HLD	61	0	5	192
TAP	62	0	3
TAP	62	96	3
TAP	62	192	3
TAP	63	0	2
TAP	63	96	2
TAP	63	192	2
TAP	64	0	1
TAP	64	96	1
TAP	64	192	1
TAP	65	0	0
TAP	65	96	7
TAP	65	192	0
TAP	66	0	7
TAP	66	96	7
TAP	66	192	7
TAP	67	0	6
TAP	67	96	6
TAP	67	192	6
TAP	68	0	5
TAP	68	96	5
TAP	68	192	5
TAP	69	0	4
TAP	69	96	3
TAP	69	192	4
HLD	70	0	3	288
HLD	70	192	4	96
TAP	71	0	3
TAP	71	96	4
TAP	71	192	3
BRK	71	288	3
BRK	71	288	4

T_REC_TAP	164
T_REC_BRK	4
T_REC_XTP	0
T_REC_HLD	20
T_REC_XHO	0
T_REC_STR	6
T_REC_BST	0
T_REC_XST	0
T_REC_TTP	0
T_REC_THO	0
T_REC_SLD	6
T_REC_ALL	200
T_NUM_TAP	170
T_NUM_BRK	4
T_NUM_HLD	20
T_NUM_SLD	6
T_NUM_ALL	200
T_JUDGE_TAP	174
T_JUDGE_HLD	84
T_JUDGE_SLD	6
T_JUDGE_ALL	264
TTM_EACHPAIRS	43
TTM_SCR_TAP	85000
TTM_SCR_BRK	10400
TTM_SCR_HLD	20000
TTM_SCR_SLD	9000
TTM_SCR_ALL	124400
TTM_SCR_S	120300
TTM_SCR_SS	124000
TTM_RAT_ACV	10032

