VERSION	0.00.00	1.03.00
FES_MODE	0
BPM_DEF	120.000	264.000	264.000	120.000
MET_DEF	4	4
RESOLUTION	384
CLK_DEF	384
COMPATIBLE_CODE	MA2

BPM	0	0	120.000
BPM	19	0	264.000
MET	0	0	4	4
MET	19	0	4	5
MET	25	96	4	4
MET	27	96	4	5
MET	32	96	4	4
MET	67	96	4	2
MET	67	288	4	4
MET	100	288	4	2
MET	101	96	4	5
MET	111	96	4	7

TAP	1	0	0
TAP	1	48	1
TAP	1	48	7
TAP	1	96	2
TAP	1	96	6
TAP	1	144	3
TAP	1	144	5
TAP	1	192	7
TAP	1	240	0
TAP	1	240	6
TAP	1	288	1
TAP	1	288	5
TAP	1	336	2
STR	1	336	4
SXR	1	336	4	96	240	0
HLD	2	0	4	288
STR	3	0	6
SI_	3	0	6	96	144	3
STR	3	0	7
SI_	3	0	7	96	48	2
TAP	3	336	1
TAP	3	360	0
HLD	4	0	2	288
HLD	4	0	7	96
HLD	4	192	5	96
TAP	5	0	7
TAP	5	48	0
TAP	5	48	6
TAP	5	96	1
TAP	5	96	5
TAP	5	144	2
TAP	5	144	4
TAP	5	192	0
TAP	5	240	1
TAP	5	240	7
TAP	5	288	2
TAP	5	288	6
STR	5	336	3
SXL	5	336	3	96	240	7
TAP	5	336	5
HLD	6	0	3	288
STR	7	0	0
SI_	7	0	0	96	48	5
STR	7	0	1
SI_	7	0	1	96	240	4
STR	7	192	5
SI_	7	192	5	96	48	0
HLD	8	0	2	96
HLD	8	0	7	288
HLD	8	192	0	96
STR	9	0	1
SI_	9	0	1	96	48	5
TAP	9	24	1
HLD	9	48	1	192
STR	9	192	5
SI_	9	192	5	96	48	1
TAP	9	216	5
HLD	9	240	5	192
STR	10	0	2
SI_	10	0	2	96	48	6
TAP	10	24	2
HLD	10	48	2	192
STR	10	192	6
SI_	10	192	6	96	48	2
TAP	10	216	6
HLD	10	240	6	96
TAP	11	0	0
TAP	11	16	7
TAP	11	32	0
TAP	11	48	7
TAP	11	64	0
TAP	11	80	7
TAP	11	96	1
TAP	11	112	6
TAP	11	128	1
TAP	11	144	6
TAP	11	160	1
TAP	11	176	6
TAP	11	192	2
TAP	11	208	5
TAP	11	224	2
TAP	11	240	5
TAP	11	256	2
TAP	11	272	5
TAP	11	288	3
TAP	11	304	4
TAP	11	320	3
TAP	11	336	4
TAP	11	352	3
TAP	11	368	4
TAP	12	0	0
TAP	12	16	1
TAP	12	32	2
TAP	12	48	7
TAP	12	64	6
TAP	12	80	5
TAP	12	96	1
TAP	12	112	2
TAP	12	128	3
TAP	12	144	6
TAP	12	160	5
TAP	12	176	4
TAP	12	192	2
TAP	12	208	3
TAP	12	224	4
TAP	12	240	5
TAP	12	256	4
TAP	12	272	3
TAP	12	288	1
TAP	12	304	2
TAP	12	320	3
TAP	12	336	6
TAP	12	352	5
TAP	12	368	4
STR	13	0	2
SUL	13	0	2	96	48	4
TAP	13	24	2
HLD	13	48	2	192
STR	13	192	4
SUL	13	192	4	96	48	6
TAP	13	216	4
HLD	13	240	4	192
STR	14	0	6
SUL	14	0	6	96	48	0
TAP	14	24	6
HLD	14	48	6	192
STR	14	192	0
SUL	14	192	0	96	48	2
TAP	14	216	0
HLD	14	240	0	192
STR	15	0	2
SUL	15	0	2	96	48	4
TAP	15	24	2
HLD	15	48	2	192
STR	15	192	4
SUL	15	192	4	96	48	6
TAP	15	216	4
HLD	15	240	4	144
TAP	16	0	6
TAP	16	96	2
TAP	16	112	5
TAP	16	128	2
TAP	16	144	5
TAP	16	160	2
TAP	16	176	5
TAP	16	192	1
TAP	16	208	6
TAP	16	224	1
TAP	16	240	6
TAP	16	256	1
TAP	16	272	6
TAP	16	288	0
TAP	16	304	7
TAP	16	320	0
TAP	16	336	7
TAP	16	352	0
TAP	16	368	7
TAP	17	0	3
TAP	17	24	4
TAP	17	48	3
TAP	17	72	7
TAP	17	96	1
TAP	17	120	7
TAP	17	144	2
TAP	17	168	3
TAP	17	192	2
TAP	17	216	0
TAP	17	240	1
TAP	17	264	0
TAP	17	288	4
TAP	17	312	4
TAP	17	336	0
TAP	17	360	0
TAP	18	0	0
TAP	18	8	1
TAP	18	8	7
TAP	18	16	2
TAP	18	16	6
TAP	18	24	3
TAP	18	24	5
TAP	19	0	2
TAP	19	0	5
TAP	19	96	1
TAP	19	128	2
TAP	19	160	3
TAP	19	192	4
TAP	19	224	5
TAP	19	256	6
STR	19	288	0
SI_	19	288	0	96	48	3
STR	19	288	7
SI_	19	288	7	96	48	4
TAP	20	0	0
TAP	20	0	7
TAP	20	96	2
TAP	20	96	5
TAP	20	192	7
TAP	20	216	0
TAP	20	216	6
TAP	20	240	1
TAP	20	240	5
TAP	20	264	2
TAP	20	264	4
STR	21	0	0
SI_	21	0	0	96	48	4
TAP	21	96	0
TAP	21	192	3
TAP	21	192	5
TAP	21	288	0
TAP	21	312	1
TAP	21	312	7
TAP	21	336	2
TAP	21	336	6
TAP	21	360	3
TAP	21	360	5
STR	22	96	7
SI_	22	96	7	96	48	3
TAP	22	192	7
TAP	22	288	2
TAP	22	288	4
TAP	23	0	7
TAP	23	24	0
TAP	23	24	6
TAP	23	48	1
TAP	23	48	5
TAP	23	72	2
TAP	23	72	4
STR	23	192	0
SI_	23	192	0	96	48	4
TAP	23	288	0
TAP	24	0	3
TAP	24	0	5
TAP	24	96	0
TAP	24	120	1
TAP	24	120	7
TAP	24	144	2
TAP	24	144	6
TAP	24	168	3
TAP	24	168	5
STR	24	288	7
SI_	24	288	7	96	48	3
TAP	25	0	7
STR	25	96	0
SI_	25	96	0	96	48	3
TAP	25	144	0
STR	25	192	7
SI_	25	192	7	96	48	4
TAP	25	240	7
STR	25	288	1
SI_	25	288	1	96	48	4
TAP	25	336	1
STR	26	0	6
SI_	26	0	6	96	96	3
TAP	26	48	6
STR	26	96	0
SI_	26	96	0	96	96	4
TAP	26	144	0
STR	26	192	7
SI_	26	192	7	96	96	3
TAP	26	240	7
STR	26	288	1
SI_	26	288	1	96	48	4
TAP	26	336	1
TAP	27	0	6
TAP	27	96	2
TAP	27	96	5
TAP	27	192	7
TAP	27	216	0
TAP	27	216	6
TAP	27	240	1
TAP	27	240	5
TAP	27	264	2
TAP	27	264	4
TAP	27	288	3
STR	28	0	0
SI_	28	0	0	96	48	3
SI_	28	0	0	96	48	5
TAP	28	96	0
TAP	28	192	2
TAP	28	192	6
TAP	28	288	0
TAP	28	312	1
TAP	28	312	7
TAP	28	336	2
TAP	28	336	6
TAP	28	360	3
TAP	28	360	5
TAP	29	0	4
STR	29	96	7
SI_	29	96	7	96	48	2
SI_	29	96	7	96	48	4
TAP	29	192	7
TAP	29	288	1
TAP	29	288	5
TAP	30	0	7
TAP	30	24	0
TAP	30	24	6
TAP	30	48	1
TAP	30	48	5
TAP	30	72	2
TAP	30	72	4
TAP	30	96	3
STR	30	192	0
SF_	30	192	0	96	48	4
TAP	30	288	0
TAP	31	0	2
TAP	31	0	6
TAP	31	96	0
TAP	31	120	1
TAP	31	120	7
TAP	31	144	2
TAP	31	144	6
TAP	31	168	3
TAP	31	168	5
TAP	31	192	4
STR	31	288	7
SF_	31	288	7	96	48	3
TAP	32	0	7
STR	32	96	0
SI_	32	96	0	96	48	3
TAP	32	144	0
STR	32	192	7
SI_	32	192	7	96	48	4
TAP	32	240	7
STR	32	288	1
SI_	32	288	1	96	48	4
TAP	32	336	1
STR	33	0	6
SI_	33	0	6	96	96	3
TAP	33	48	6
STR	33	96	0
SI_	33	96	0	96	96	4
TAP	33	144	0
STR	33	192	7
SI_	33	192	7	96	96	3
TAP	33	240	7
STR	33	288	1
SI_	33	288	1	96	48	4
TAP	33	336	1
TAP	34	0	6
TAP	34	96	1
TAP	34	144	4
TAP	34	192	3
TAP	34	240	4
TAP	34	288	7
TAP	34	336	4
TAP	35	0	3
TAP	35	48	4
TAP	35	96	0
TAP	35	144	4
TAP	35	192	3
TAP	35	240	4
TAP	35	288	6
TAP	35	336	4
TAP	36	0	3
TAP	36	48	4
TAP	36	96	1
TAP	36	144	4
TAP	36	192	3
TAP	36	240	4
TAP	36	288	6
TAP	36	336	4
TAP	37	0	3
TAP	37	48	4
TAP	37	96	0
TAP	37	144	1
TAP	37	192	2
TAP	37	240	3
TAP	37	288	4
TAP	37	336	5
TAP	38	0	6
TAP	38	0	7
TAP	38	96	6
TAP	38	144	3
TAP	38	192	4
TAP	38	240	3
TAP	38	288	0
TAP	38	336	3
TAP	39	0	4
TAP	39	48	3
TAP	39	96	7
TAP	39	144	3
TAP	39	192	4
TAP	39	240	3
TAP	39	288	1
TAP	39	336	3
TAP	40	0	4
TAP	40	48	3
TAP	40	96	6
TAP	40	144	3
TAP	40	192	4
TAP	40	240	3
TAP	40	288	1
TAP	40	336	3
TAP	41	0	4
TAP	41	48	3
TAP	41	96	7
TAP	41	144	6
TAP	41	192	5
TAP	41	240	4
TAP	41	288	3
TAP	41	336	2
TAP	42	0	0
TAP	42	0	1
TAP	42	96	1
TAP	42	144	4
TAP	42	192	4
TAP	42	240	4
TAP	42	288	7
TAP	42	336	4
TAP	43	0	4
TAP	43	48	4
TAP	43	96	0
TAP	43	144	4
TAP	43	192	4
TAP	43	240	4
TAP	43	288	6
TAP	43	336	4
TAP	44	0	4
TAP	44	48	4
TAP	44	96	1
TAP	44	144	4
TAP	44	192	4
TAP	44	240	4
TAP	44	288	6
TAP	44	336	4
TAP	45	0	4
TAP	45	48	4
STR	45	96	1
SI_	45	96	1	96	48	4
STR	45	144	4
SI_	45	144	4	96	48	1
STR	45	192	1
SI_	45	192	1	96	48	6
STR	45	240	6
SI_	45	240	6	96	48	1
STR	45	288	6
SI_	45	288	6	96	48	4
TAP	46	96	6
TAP	46	144	3
TAP	46	192	3
TAP	46	240	3
TAP	46	288	0
TAP	46	336	3
TAP	47	0	3
TAP	47	48	3
TAP	47	96	7
TAP	47	144	3
TAP	47	192	3
TAP	47	240	3
TAP	47	288	1
TAP	47	336	3
TAP	48	0	3
TAP	48	48	3
TAP	48	96	6
TAP	48	144	3
TAP	48	192	3
TAP	48	240	3
TAP	48	288	1
TAP	48	336	3
TAP	49	0	3
TAP	49	48	3
STR	49	96	6
SI_	49	96	6	96	48	3
STR	49	144	3
SI_	49	144	3	96	48	6
STR	49	192	6
SI_	49	192	6	96	48	1
STR	49	240	1
SI_	49	240	1	96	48	6
STR	49	288	1
SI_	49	288	1	96	48	3
STR	50	96	6
SI_	50	96	6	96	48	1
TAP	50	192	5
TAP	50	192	6
STR	50	288	2
SI_	50	288	2	96	48	5
TAP	51	0	1
TAP	51	0	2
TAP	51	96	6
TAP	51	144	7
TAP	51	192	5
TAP	51	240	0
TAP	51	288	4
TAP	51	336	1
TAP	52	0	3
TAP	52	48	2
STR	52	96	6
SI_	52	96	6	96	96	4
STR	52	192	4
SI_	52	192	4	96	96	2
STR	52	288	2
SI_	52	288	2	96	96	0
STR	53	0	0
SI_	53	0	0	96	96	6
STR	53	96	6
SI_	53	96	6	96	96	4
STR	53	192	4
SI_	53	192	4	96	96	2
STR	53	288	2
SI_	53	288	2	96	96	0
TAP	54	0	0
STR	54	96	2
SI_	54	96	2	96	48	5
TAP	54	192	1
TAP	54	192	2
STR	54	288	6
SI_	54	288	6	96	48	1
TAP	55	0	5
TAP	55	0	6
TAP	55	96	2
TAP	55	144	3
TAP	55	192	1
TAP	55	240	4
TAP	55	288	0
TAP	55	336	5
TAP	56	0	7
TAP	56	48	6
TAP	56	96	1
TAP	56	144	0
TAP	56	192	2
TAP	56	240	7
TAP	56	288	3
TAP	56	336	6
TAP	57	0	4
TAP	57	48	5
HLD	57	96	3	96
HLD	57	96	6	96
HLD	57	240	0	96
HLD	57	240	1	96
TAP	58	0	2
TAP	58	0	5
STR	58	96	1
SI_	58	96	1	96	48	6
TAP	58	192	1
TAP	58	192	2
STR	58	288	5
SI_	58	288	5	96	48	2
TAP	59	0	5
TAP	59	0	6
TAP	59	96	1
TAP	59	144	0
TAP	59	192	2
TAP	59	240	7
TAP	59	288	3
TAP	59	336	6
TAP	60	0	4
TAP	60	48	5
STR	60	96	1
SI_	60	96	1	96	96	3
STR	60	192	3
SI_	60	192	3	96	96	5
STR	60	288	5
SI_	60	288	5	96	96	7
STR	61	0	7
SI_	61	0	7	96	96	1
STR	61	96	1
SI_	61	96	1	96	96	3
STR	61	192	3
SI_	61	192	3	96	96	5
STR	61	288	5
SI_	61	288	5	96	96	7
TAP	62	0	7
STR	62	96	5
SI_	62	96	5	96	48	2
TAP	62	192	5
TAP	62	192	6
STR	62	288	1
SI_	62	288	1	96	48	6
TAP	63	0	1
TAP	63	0	2
TAP	63	96	5
TAP	63	144	4
TAP	63	192	6
TAP	63	240	3
TAP	63	288	7
TAP	63	336	2
TAP	64	0	0
TAP	64	48	1
TAP	64	96	2
TAP	64	96	5
STR	64	144	0
SI_	64	144	0	96	48	2
STR	64	144	7
SI_	64	144	7	96	48	3
TAP	64	240	0
TAP	64	240	7
TAP	65	0	1
TAP	65	0	6
STR	65	48	0
SI_	65	48	0	96	48	4
STR	65	48	7
SI_	65	48	7	96	48	5
STR	65	144	0
SI_	65	144	0	96	48	2
STR	65	144	7
SI_	65	144	7	96	48	3
TAP	65	240	0
TAP	65	240	7
HLD	66	0	1	96
HLD	66	0	6	96
HLD	66	144	0	96
HLD	66	144	7	96
STR	66	288	2
SUL	66	288	2	96	144	5
STR	66	288	6
SCR	66	288	6	96	144	1
HLD	67	288	6	96
TAP	68	0	7
TAP	68	48	6
TAP	68	96	7
TAP	68	144	6
TAP	68	192	7
TAP	68	240	6
HLD	68	288	1	96
TAP	69	0	0
TAP	69	48	1
TAP	69	96	0
TAP	69	144	1
TAP	69	192	0
TAP	69	240	1
HLD	69	288	6	96
TAP	70	0	1
TAP	70	32	2
TAP	70	64	3
TAP	70	96	0
TAP	70	120	1
TAP	70	144	2
TAP	70	168	3
TAP	70	192	6
TAP	70	224	5
TAP	70	256	4
TAP	70	288	7
TAP	70	312	6
TAP	70	336	5
TAP	70	360	4
TAP	71	0	1
TAP	71	32	2
TAP	71	64	3
TAP	71	96	0
TAP	71	120	1
TAP	71	144	2
TAP	71	168	3
TAP	71	192	6
TAP	71	224	5
TAP	71	256	4
HLD	71	288	7	96
TAP	72	0	0
TAP	72	48	7
TAP	72	96	0
TAP	72	144	7
TAP	72	192	1
TAP	72	192	6
TAP	72	288	0
TAP	72	336	7
TAP	73	0	1
TAP	73	48	6
TAP	73	96	2
TAP	73	144	5
TAP	73	192	3
TAP	73	192	4
TAP	73	288	1
TAP	73	288	6
TAP	74	0	6
TAP	74	48	5
TAP	74	48	7
TAP	74	144	1
TAP	74	192	0
TAP	74	192	2
HLD	74	288	1	192
HLD	74	288	6	192
STR	75	288	0
SI_	75	288	0	96	48	2
TAP	75	336	4
TAP	76	0	0
TAP	76	48	4
STR	76	96	0
SI_	76	96	0	96	48	3
TAP	76	144	5
TAP	76	192	0
TAP	76	240	5
STR	76	288	0
SI_	76	288	0	96	48	4
TAP	76	336	6
TAP	77	0	0
TAP	77	48	6
STR	77	96	0
SI_	77	96	0	96	48	3
TAP	77	144	7
TAP	77	192	0
TAP	77	240	7
STR	77	288	0
SI_	77	288	0	96	48	2
TAP	77	336	4
TAP	78	0	0
TAP	78	48	4
STR	78	96	0
SI_	78	96	0	96	48	3
TAP	78	144	5
TAP	78	192	0
TAP	78	240	5
STR	78	288	0
SI_	78	288	0	96	48	4
TAP	78	336	6
TAP	79	0	0
TAP	79	48	6
TAP	79	96	0
TAP	79	144	7
TAP	79	192	1
TAP	79	192	6
TAP	79	288	0
TAP	79	288	4
TAP	79	312	1
TAP	79	336	2
TAP	79	360	3
TAP	80	0	4
TAP	80	24	5
TAP	80	48	6
TAP	80	72	7
TAP	80	96	0
TAP	80	120	1
TAP	80	144	2
TAP	80	168	3
TAP	80	192	4
TAP	80	216	5
TAP	80	240	6
TAP	80	264	7
TAP	80	288	0
TAP	80	288	4
TAP	80	312	1
TAP	80	336	2
TAP	80	360	3
TAP	81	0	4
TAP	81	24	5
TAP	81	48	6
TAP	81	72	7
TAP	81	96	0
TAP	81	120	1
TAP	81	144	2
TAP	81	168	3
TAP	81	192	4
TAP	81	216	5
TAP	81	240	6
TAP	81	264	7
TAP	81	288	0
TAP	81	288	4
TAP	81	312	1
TAP	81	336	2
TAP	81	360	3
TAP	82	0	0
TAP	82	0	4
TAP	82	24	5
TAP	82	48	6
TAP	82	72	7
TAP	82	96	0
TAP	82	96	4
TAP	82	120	1
TAP	82	144	2
TAP	82	168	3
TAP	82	192	0
TAP	82	192	4
TAP	82	216	5
TAP	82	240	6
TAP	82	264	7
HLD	82	288	0	192
HLD	82	288	4	192
HLD	83	288	1	0
HLD	83	288	5	0
TAP	84	192	6
TAP	84	240	0
TAP	84	288	6
TAP	85	48	2
TAP	85	192	7
STR	85	288	1
SXR	85	288	1	96	288	4
TAP	87	96	3
TAP	87	96	5
HLD	87	288	2	0
HLD	87	288	6	0
TAP	88	192	1
TAP	88	240	7
TAP	88	288	1
TAP	89	48	5
TAP	89	192	0
STR	89	288	6
SXL	89	288	6	96	288	3
HLD	91	96	4	0
HLD	91	108	5	0
HLD	91	120	6	0
HLD	91	132	7	0
HLD	91	144	0	0
HLD	91	156	1	0
HLD	91	168	2	0
HLD	91	180	3	0
TAP	91	288	1
TAP	91	288	5
TAP	91	336	6
TAP	92	0	0
TAP	92	48	7
TAP	92	96	2
TAP	92	96	6
TAP	92	144	1
TAP	92	192	7
TAP	92	240	0
TAP	92	288	1
TAP	92	288	5
TAP	92	336	6
TAP	93	0	0
TAP	93	48	7
TAP	93	96	2
TAP	93	96	6
TAP	93	144	1
TAP	93	192	7
TAP	93	240	0
TAP	93	288	7
TAP	93	336	6
TAP	94	0	5
TAP	94	48	4
TAP	94	96	0
TAP	94	144	1
TAP	94	192	2
TAP	94	240	3
TAP	94	288	5
TAP	94	320	4
TAP	94	352	6
TAP	95	0	4
TAP	95	32	5
TAP	95	64	3
TAP	95	96	5
TAP	95	128	4
TAP	95	160	5
TAP	95	192	2
TAP	95	224	3
TAP	95	256	2
HLD	95	288	6	192
TAP	96	48	0
TAP	96	96	0
TAP	96	192	2
TAP	96	240	6
TAP	96	288	1
TAP	96	336	5
TAP	97	0	0
TAP	97	48	4
TAP	97	96	2
TAP	97	128	1
TAP	97	160	0
TAP	97	192	7
TAP	97	224	6
TAP	97	256	5
TAP	97	288	3
TAP	97	288	4
STR	97	336	0
SI_	97	336	0	96	48	4
STR	97	336	7
SI_	97	336	7	96	48	5
TAP	98	48	0
TAP	98	48	7
TAP	98	192	2
TAP	98	192	5
STR	98	240	0
SI_	98	240	0	96	48	2
STR	98	240	7
SI_	98	240	7	96	48	3
STR	98	336	0
SI_	98	336	0	96	48	4
STR	98	336	7
SI_	98	336	7	96	48	5
TAP	99	48	0
TAP	99	48	7
HLD	99	192	1	96
HLD	99	192	6	96
HLD	99	336	0	96
HLD	99	336	7	96
STR	100	96	1
SCL	100	96	1	96	144	6
STR	100	96	5
SUR	100	96	5	96	144	2
TAP	101	96	3
TAP	101	96	5
STR	101	192	0
SCL	101	192	0	96	96	4
STR	101	216	7
SCL	101	216	7	96	96	3
STR	101	240	6
SCL	101	240	6	96	96	2
STR	101	264	5
SCL	101	264	5	96	96	1
STR	102	0	7
SI_	102	0	7	96	48	3
TAP	102	96	7
TAP	102	192	2
TAP	102	192	4
STR	102	288	7
SCR	102	288	7	96	96	3
STR	102	312	0
SCR	102	312	0	96	96	4
STR	102	336	1
SCR	102	336	1	96	96	5
STR	102	360	2
SCR	102	360	2	96	96	6
STR	103	96	0
SI_	103	96	0	96	48	4
TAP	103	192	0
TAP	103	288	3
TAP	103	288	5
STR	104	0	0
SCL	104	0	0	96	96	4
STR	104	24	7
SCL	104	24	7	96	96	3
STR	104	48	6
SCL	104	48	6	96	96	2
STR	104	72	5
SCL	104	72	5	96	96	1
STR	104	192	7
SI_	104	192	7	96	48	3
TAP	104	288	7
TAP	105	0	2
TAP	105	0	4
STR	105	96	7
SCR	105	96	7	96	96	3
STR	105	120	0
SCR	105	120	0	96	96	4
STR	105	144	1
SCR	105	144	1	96	96	5
STR	105	168	2
SCR	105	168	2	96	96	6
STR	105	288	0
SI_	105	288	0	96	48	4
TAP	106	0	0
TAP	106	96	2
TAP	106	96	6
STR	106	192	0
SCL	106	192	0	96	96	4
STR	106	216	7
SCL	106	216	7	96	96	3
STR	106	240	6
SCL	106	240	6	96	96	2
STR	106	264	5
SCL	106	264	5	96	96	1
TAP	106	288	0
STR	107	0	7
SI_	107	0	7	96	48	2
SI_	107	0	7	96	48	4
TAP	107	96	7
TAP	107	192	1
TAP	107	192	5
STR	107	288	7
SCR	107	288	7	96	96	3
STR	107	312	0
SCR	107	312	0	96	96	4
STR	107	336	1
SCR	107	336	1	96	96	5
STR	107	360	2
SCR	107	360	2	96	96	6
TAP	108	0	7
STR	108	96	0
SI_	108	96	0	96	48	3
SI_	108	96	0	96	48	5
TAP	108	192	0
TAP	108	288	2
TAP	108	288	6
STR	109	0	0
SCL	109	0	0	96	96	4
STR	109	24	7
SCL	109	24	7	96	96	3
STR	109	48	6
SCL	109	48	6	96	96	2
STR	109	72	5
SCL	109	72	5	96	96	1
TAP	109	96	0
STR	109	192	7
SF_	109	192	7	96	48	3
TAP	109	288	7
TAP	110	0	1
TAP	110	0	5
STR	110	96	7
SCR	110	96	7	96	96	3
STR	110	120	0
SCR	110	120	0	96	96	4
STR	110	144	1
SCR	110	144	1	96	96	5
STR	110	168	2
SCR	110	168	2	96	96	6
TAP	110	192	7
STR	110	288	0
SF_	110	288	0	96	48	4
TAP	111	0	0
TAP	111	96	1
TAP	111	96	6
STR	111	144	0
SI_	111	144	0	96	48	4
STR	111	144	7
SI_	111	144	7	96	48	5
TAP	111	240	0
TAP	111	240	7
TAP	112	0	1
TAP	112	0	6
STR	112	48	0
SI_	112	48	0	96	48	2
STR	112	48	7
SI_	112	48	7	96	48	3
STR	112	144	0
SI_	112	144	0	96	48	4
STR	112	144	7
SI_	112	144	7	96	48	5
TAP	112	240	0
TAP	112	240	7
TAP	113	0	2
TAP	113	0	5
STR	113	48	0
SI_	113	48	0	96	48	2
STR	113	48	7
SI_	113	48	7	96	48	3
TAP	113	144	0
TAP	113	144	7
TAP	113	288	2
TAP	113	288	5
STR	113	336	0
SI_	113	336	0	96	48	4
STR	113	336	7
SI_	113	336	7	96	48	5
STR	114	48	0
SI_	114	48	0	96	48	2
STR	114	48	7
SI_	114	48	7	96	48	3
TAP	114	144	0
TAP	114	144	7
TAP	114	288	3
TAP	114	288	4
STR	114	336	0
SI_	114	336	0	96	48	4
STR	114	336	7
SI_	114	336	7	96	48	3
TAP	115	48	0
TAP	115	48	7
TAP	115	192	3
TAP	115	192	4
STR	115	240	0
SI_	115	240	0	96	48	3
STR	115	240	7
SI_	115	240	7	96	48	4
STR	115	336	0
SCL	115	336	0	96	48	4
STR	115	336	7
SCR	115	336	7	96	48	3
TAP	116	48	0
TAP	116	48	7
BRK	116	192	0
BRK	116	192	7
TAP	116	208	1
TAP	116	224	2
TAP	116	240	3
BRK	116	336	0
BRK	116	336	7
TAP	116	352	6
TAP	116	368	5
TAP	117	0	4
BST	117	96	0
SSL	117	96	0	96	576	4
SSR	117	96	0	96	576	4
BRK	117	96	7
HLD	117	112	1	0
HLD	117	112	6	0
HLD	117	128	2	0
HLD	117	128	5	0
HLD	117	144	3	0
HLD	117	144	4	0

T_REC_TAP	687
T_REC_BRK	5
T_REC_XTP	0
T_REC_HLD	57
T_REC_XHO	0
T_REC_STR	156
T_REC_BST	1
T_REC_XST	0
T_REC_TTP	0
T_REC_THO	0
T_REC_SLD	162
T_REC_ALL	1068
T_NUM_TAP	843
T_NUM_BRK	6
T_NUM_HLD	57
T_NUM_SLD	162
T_NUM_ALL	1068
T_JUDGE_TAP	849
T_JUDGE_HLD	113
T_JUDGE_SLD	162
T_JUDGE_ALL	1124
TTM_EACHPAIRS	143
TTM_SCR_TAP	421500
TTM_SCR_BRK	15600
TTM_SCR_HLD	57000
TTM_SCR_SLD	243000
TTM_SCR_ALL	737100
TTM_SCR_S	714450
TTM_SCR_SS	736500
TTM_RAT_ACV	10008

