VERSION	0.00.00	1.03.00
FES_MODE	0
BPM_DEF	120.000	264.000	264.000	120.000
MET_DEF	4	4
RESOLUTION	384
CLK_DEF	384
COMPATIBLE_CODE	MA2

BPM	0	0	120.000
BPM	19	0	264.000
MET	0	0	4	4
MET	19	0	4	5
MET	25	96	4	4
MET	27	96	4	5
MET	32	96	4	4
MET	64	96	4	7
MET	67	288	4	4
MET	97	288	4	7
MET	101	96	4	5
MET	111	96	4	7

TAP	1	0	0
TAP	1	48	1
TAP	1	96	2
TAP	1	144	3
TAP	1	192	4
TAP	1	240	5
TAP	1	288	6
TAP	1	336	7
STR	2	0	0
SCR	2	0	0	96	96	6
STR	3	0	7
SXR	3	0	7	96	96	3
STR	4	0	0
SF_	4	0	0	96	48	4
TAP	4	192	1
TAP	4	192	6
TAP	5	0	7
TAP	5	48	6
TAP	5	96	5
TAP	5	144	4
TAP	5	192	3
TAP	5	240	2
TAP	5	288	1
TAP	5	336	0
STR	6	0	7
SCL	6	0	7	96	96	1
STR	7	0	0
SXL	7	0	0	96	96	4
TAP	7	192	5
TAP	7	288	6
STR	8	0	7
SF_	8	0	7	96	48	3
TAP	8	192	1
TAP	8	192	6
HLD	9	0	1	96
TAP	9	0	4
HLD	9	96	2	96
HLD	9	192	3	96
TAP	9	288	4
TAP	9	336	4
TAP	10	0	3
HLD	10	0	6	96
HLD	10	96	5	96
HLD	10	192	4	96
TAP	10	288	3
TAP	10	336	3
HLD	11	0	2	96
TAP	11	0	7
HLD	11	96	1	96
HLD	11	192	0	96
TAP	11	288	7
TAP	11	336	7
TAP	12	0	0
HLD	12	0	5	96
HLD	12	96	6	96
HLD	12	192	7	96
TAP	12	288	0
TAP	12	336	0
HLD	13	0	1	96
TAP	13	0	4
TAP	13	96	3
TAP	13	144	3
HLD	13	192	2	96
TAP	13	192	7
TAP	13	288	0
TAP	13	336	0
TAP	14	0	3
HLD	14	0	6	96
TAP	14	96	4
TAP	14	144	4
TAP	14	192	0
HLD	14	192	5	96
TAP	14	288	7
TAP	14	336	7
TAP	15	0	1
TAP	15	48	1
TAP	15	96	2
TAP	15	144	2
TAP	15	192	3
TAP	15	240	3
TAP	15	288	4
TAP	15	336	4
TAP	16	0	5
TAP	16	48	5
TAP	16	96	6
TAP	16	144	6
TAP	16	192	0
TAP	16	192	7
TAP	16	240	0
TAP	16	240	7
TAP	16	288	1
TAP	16	288	6
TAP	16	336	2
TAP	16	336	5
STR	17	0	3
SXR	17	0	3	96	192	0
STR	17	0	4
SXL	17	0	4	96	192	7
BRK	18	0	1
BRK	18	0	6
STR	20	96	1
SI_	20	96	1	96	48	4
TAP	20	192	5
STR	20	240	5
SI_	20	240	5	96	48	0
HLD	21	0	1	96
TAP	21	96	7
STR	21	192	6
SI_	21	192	6	96	48	3
TAP	21	288	2
STR	21	336	2
SI_	21	336	2	96	48	7
HLD	22	96	6	96
TAP	22	192	0
STR	22	288	1
SI_	22	288	1	96	48	4
TAP	23	0	5
STR	23	48	5
SI_	23	48	5	96	48	0
HLD	23	192	1	96
TAP	23	288	7
STR	24	0	6
SI_	24	0	6	96	48	3
TAP	24	96	2
STR	24	144	2
SI_	24	144	2	96	48	7
HLD	24	288	6	96
TAP	25	0	0
STR	25	96	2
SXL	25	96	2	96	288	7
TAP	25	96	5
TAP	26	288	0
TAP	26	288	7
TAP	27	0	0
TAP	27	0	7
STR	27	96	6
SCL	27	96	6	96	48	3
TAP	27	192	2
STR	27	240	2
SCL	27	240	2	96	48	7
HLD	28	0	6	96
TAP	28	96	0
STR	28	192	1
SCR	28	192	1	96	48	4
TAP	28	288	5
STR	28	336	5
SCR	28	336	5	96	48	0
HLD	29	96	1	96
TAP	29	192	7
STR	29	288	6
SCL	29	288	6	96	48	3
TAP	30	0	2
STR	30	48	2
SCL	30	48	2	96	48	7
HLD	30	192	6	96
TAP	30	288	0
STR	31	0	1
SCR	31	0	1	96	48	4
TAP	31	96	5
STR	31	144	5
SCR	31	144	5	96	48	0
HLD	31	288	1	96
TAP	32	0	7
TAP	32	96	2
STR	32	96	5
SXR	32	96	5	96	288	0
TAP	33	288	0
TAP	33	288	7
TAP	34	0	1
TAP	34	0	6
TAP	34	96	2
TAP	34	144	3
TAP	34	192	2
TAP	34	288	2
TAP	35	0	1
TAP	35	0	4
TAP	35	96	5
TAP	35	144	4
TAP	35	192	5
TAP	35	288	5
TAP	36	0	3
TAP	36	0	6
TAP	36	96	1
TAP	36	144	0
TAP	36	192	1
TAP	36	288	1
TAP	37	0	2
TAP	37	0	7
TAP	37	96	6
TAP	37	144	7
TAP	37	192	6
TAP	37	240	7
TAP	37	288	6
TAP	38	0	0
TAP	38	0	5
TAP	38	96	5
TAP	38	144	4
TAP	38	192	5
TAP	38	288	5
TAP	39	0	3
TAP	39	0	6
TAP	39	96	2
TAP	39	144	3
TAP	39	192	2
TAP	39	288	2
TAP	40	0	1
TAP	40	0	4
TAP	40	96	6
TAP	40	144	7
TAP	40	192	6
TAP	40	288	6
TAP	41	0	0
TAP	41	0	5
TAP	41	96	1
TAP	41	144	0
TAP	41	192	1
TAP	41	240	0
TAP	41	288	1
TAP	42	0	2
TAP	42	0	7
TAP	42	96	5
TAP	42	144	4
TAP	42	192	5
TAP	42	240	4
TAP	42	288	5
TAP	43	0	0
TAP	43	0	7
TAP	43	96	2
TAP	43	144	3
TAP	43	192	2
TAP	43	240	3
TAP	43	288	2
TAP	44	0	0
TAP	44	0	7
TAP	44	96	4
TAP	44	144	3
TAP	44	192	4
TAP	44	240	3
TAP	44	288	4
TAP	45	0	0
TAP	45	0	7
TAP	45	96	7
TAP	45	144	0
TAP	45	192	6
TAP	45	240	1
TAP	45	288	7
TAP	45	336	7
TAP	46	0	7
TAP	46	96	1
TAP	46	144	3
TAP	46	192	1
TAP	46	240	3
TAP	46	288	1
TAP	47	0	0
TAP	47	0	7
TAP	47	96	6
TAP	47	144	4
TAP	47	192	6
TAP	47	240	4
TAP	47	288	6
TAP	48	0	0
TAP	48	0	7
TAP	48	96	3
TAP	48	144	4
TAP	48	192	3
TAP	48	240	4
TAP	48	288	3
TAP	49	0	0
TAP	49	0	7
TAP	49	96	0
TAP	49	144	7
TAP	49	192	1
TAP	49	240	6
TAP	49	288	0
TAP	49	336	0
BRK	50	0	0
TAP	50	96	2
TAP	50	96	3
TAP	50	192	1
TAP	50	192	4
TAP	50	288	6
TAP	50	336	7
TAP	51	0	6
TAP	51	96	4
TAP	51	96	5
TAP	51	192	3
TAP	51	192	6
TAP	51	288	1
TAP	51	336	0
TAP	52	0	1
TAP	52	96	2
TAP	52	96	3
TAP	52	192	1
TAP	52	192	4
TAP	52	288	6
TAP	52	336	7
TAP	53	0	6
STR	53	96	1
SI_	53	96	1	96	48	4
TAP	53	192	6
STR	53	240	6
SI_	53	240	6	96	48	2
TAP	53	336	0
TAP	54	0	0
TAP	54	96	4
TAP	54	96	5
TAP	54	192	3
TAP	54	192	6
TAP	54	288	1
TAP	54	336	0
TAP	55	0	1
TAP	55	96	2
TAP	55	96	3
TAP	55	192	1
TAP	55	192	4
TAP	55	288	6
TAP	55	336	7
TAP	56	0	6
TAP	56	96	4
TAP	56	96	5
TAP	56	192	3
TAP	56	192	6
TAP	56	288	1
TAP	56	336	0
TAP	57	0	1
STR	57	96	6
SI_	57	96	6	96	48	3
TAP	57	192	1
STR	57	240	1
SI_	57	240	1	96	48	5
TAP	57	336	7
TAP	58	0	7
TAP	58	96	0
TAP	58	96	1
TAP	58	192	2
TAP	58	192	7
TAP	58	288	5
TAP	58	336	4
TAP	59	0	5
TAP	59	96	6
TAP	59	96	7
TAP	59	192	0
TAP	59	192	5
TAP	59	288	2
TAP	59	336	3
TAP	60	0	2
TAP	60	96	0
TAP	60	96	1
TAP	60	192	2
TAP	60	192	7
TAP	60	288	5
TAP	60	336	4
TAP	61	0	5
STR	61	96	3
SCL	61	96	3	96	96	0
STR	61	96	4
SCR	61	96	4	96	96	7
TAP	62	0	2
TAP	62	0	5
TAP	62	96	6
TAP	62	96	7
TAP	62	192	0
TAP	62	192	5
TAP	62	288	2
TAP	62	336	3
TAP	63	0	2
TAP	63	96	0
TAP	63	96	1
TAP	63	192	2
TAP	63	192	7
TAP	63	288	5
TAP	63	336	4
TAP	64	0	5
TAP	64	96	1
STR	64	144	1
SI_	64	144	1	96	48	4
TAP	64	240	7
TAP	65	0	6
STR	65	48	6
SI_	65	48	6	96	48	3
TAP	65	144	0
TAP	65	240	2
TAP	65	240	5
TAP	66	0	4
TAP	66	0	6
TAP	66	144	1
TAP	66	144	3
BST	66	288	0
SI_	66	288	0	96	48	3
BST	66	288	7
SI_	66	288	7	96	48	4
TAP	67	288	0
TAP	67	288	1
TAP	68	0	1
TAP	68	96	1
TAP	68	96	7
TAP	68	192	1
TAP	68	288	1
TAP	68	288	3
TAP	69	0	1
TAP	69	96	1
TAP	69	96	6
TAP	69	192	5
TAP	69	240	4
TAP	69	288	3
TAP	69	288	6
TAP	70	0	6
TAP	70	96	6
TAP	70	96	7
TAP	70	192	6
TAP	70	288	1
STR	70	288	6
SI_	70	288	6	96	48	1
TAP	71	0	2
TAP	71	96	3
TAP	71	192	4
TAP	71	192	5
TAP	71	288	6
TAP	71	288	7
TAP	72	0	6
TAP	72	96	0
TAP	72	96	6
TAP	72	192	6
TAP	72	288	4
TAP	72	288	6
TAP	73	0	6
TAP	73	96	1
TAP	73	96	6
TAP	73	192	2
TAP	73	240	3
TAP	73	288	1
TAP	73	288	4
TAP	74	0	1
TAP	74	96	0
TAP	74	96	1
TAP	74	192	1
STR	74	288	1
SI_	74	288	1	96	48	6
TAP	74	288	6
TAP	75	0	5
TAP	75	96	4
TAP	75	192	2
TAP	75	192	3
TAP	75	288	3
TAP	75	336	4
TAP	76	0	3
TAP	76	48	4
TAP	76	96	3
TAP	76	144	4
TAP	76	192	3
TAP	76	240	4
TAP	76	288	2
TAP	76	336	5
TAP	77	0	2
TAP	77	48	5
TAP	77	96	2
TAP	77	144	5
TAP	77	192	2
TAP	77	240	5
TAP	77	288	1
TAP	77	336	6
TAP	78	0	1
TAP	78	48	6
TAP	78	96	1
TAP	78	144	6
TAP	78	192	1
TAP	78	240	6
TAP	78	288	0
TAP	78	336	7
TAP	79	0	0
TAP	79	48	7
TAP	79	96	0
TAP	79	144	7
TAP	79	192	0
TAP	79	240	7
TAP	79	288	1
TAP	79	336	6
TAP	80	0	1
TAP	80	48	6
TAP	80	96	2
TAP	80	144	5
TAP	80	192	2
TAP	80	240	5
TAP	80	288	3
TAP	80	336	4
TAP	81	0	3
TAP	81	48	4
TAP	81	96	2
TAP	81	144	5
TAP	81	192	2
TAP	81	240	5
TAP	81	288	1
TAP	81	336	6
TAP	82	0	1
TAP	82	48	6
TAP	82	96	0
TAP	82	144	7
TAP	82	192	0
TAP	82	240	7
STR	82	288	0
SCR	82	288	0	96	144	7
BRK	83	288	1
BRK	83	288	6
TAP	84	192	1
TAP	84	288	1
TAP	85	48	2
TAP	85	192	3
STR	85	288	4
SUL	85	288	4	96	192	0
SUR	85	288	4	96	192	0
TAP	87	96	3
TAP	87	96	4
TAP	87	288	1
TAP	87	288	6
TAP	88	192	6
TAP	88	288	6
TAP	89	48	5
TAP	89	192	4
STR	89	288	3
SUL	89	288	3	96	192	7
SUR	89	288	3	96	192	7
TAP	91	96	3
TAP	91	96	4
TAP	91	288	3
TAP	92	0	0
TAP	92	0	5
TAP	92	96	6
TAP	92	144	7
TAP	92	192	5
TAP	92	240	0
TAP	92	288	4
TAP	93	0	2
TAP	93	0	7
TAP	93	96	1
TAP	93	144	0
TAP	93	192	2
TAP	93	240	7
TAP	93	288	3
TAP	94	0	1
TAP	94	0	6
TAP	94	96	0
TAP	94	144	7
TAP	94	192	0
TAP	94	240	7
TAP	94	288	0
TAP	94	336	1
TAP	95	0	2
TAP	95	48	3
TAP	95	96	4
TAP	95	144	5
TAP	95	192	6
TAP	95	240	7
TAP	95	288	0
TAP	96	0	3
TAP	96	0	6
TAP	96	96	5
TAP	96	144	4
TAP	96	192	6
TAP	96	240	3
TAP	96	288	7
TAP	97	0	1
TAP	97	0	4
TAP	97	96	2
TAP	97	144	3
TAP	97	192	1
TAP	97	240	4
TAP	97	288	0
STR	97	336	0
SI_	97	336	0	96	48	4
TAP	98	48	6
TAP	98	192	7
STR	98	240	7
SI_	98	240	7	96	48	3
TAP	98	336	1
TAP	99	48	2
TAP	99	48	5
TAP	99	192	1
TAP	99	192	3
TAP	99	336	4
TAP	99	336	6
BST	100	96	0
SI_	100	96	0	96	48	3
BST	100	96	7
SI_	100	96	7	96	48	4
STR	101	96	1
SI_	101	96	1	96	48	4
TAP	101	192	5
STR	101	240	5
SI_	101	240	5	96	48	0
STR	102	0	1
SI_	102	0	1	96	48	4
TAP	102	96	7
STR	102	192	6
SI_	102	192	6	96	48	3
TAP	102	288	2
STR	102	336	2
SI_	102	336	2	96	48	7
STR	103	96	6
SI_	103	96	6	96	48	3
TAP	103	192	0
STR	103	288	1
SI_	103	288	1	96	48	4
TAP	104	0	5
STR	104	48	5
SI_	104	48	5	96	48	0
STR	104	192	1
SI_	104	192	1	96	48	4
TAP	104	288	7
STR	105	0	6
SI_	105	0	6	96	48	3
TAP	105	96	2
STR	105	144	2
SI_	105	144	2	96	48	7
STR	105	288	6
SI_	105	288	6	96	48	3
TAP	106	0	0
STR	106	96	1
SCR	106	96	1	96	48	4
TAP	106	192	5
STR	106	240	5
SCR	106	240	5	96	48	0
STR	107	0	1
SCR	107	0	1	96	48	4
TAP	107	96	7
STR	107	192	6
SCL	107	192	6	96	48	3
TAP	107	288	2
STR	107	336	2
SCL	107	336	2	96	48	7
STR	108	96	6
SCL	108	96	6	96	48	3
TAP	108	192	0
STR	108	288	1
SCR	108	288	1	96	48	4
TAP	109	0	5
STR	109	48	5
SCR	109	48	5	96	48	0
STR	109	192	1
SCR	109	192	1	96	48	4
TAP	109	288	7
STR	110	0	6
SCL	110	0	6	96	48	3
TAP	110	96	2
STR	110	144	2
SCL	110	144	2	96	48	7
STR	110	288	6
SCL	110	288	6	96	48	3
TAP	111	0	0
TAP	111	96	1
STR	111	144	1
SI_	111	144	1	96	48	5
HLD	111	240	7	144
TAP	112	0	4
STR	112	48	4
SI_	112	48	4	96	48	0
TAP	112	144	6
TAP	112	240	1
TAP	112	240	7
TAP	113	0	6
STR	113	48	6
SI_	113	48	6	96	48	2
HLD	113	144	0	144
TAP	113	288	3
STR	113	336	3
SI_	113	336	3	96	48	7
TAP	114	48	1
TAP	114	144	0
TAP	114	144	6
TAP	114	288	1
STR	114	336	1
SI_	114	336	1	96	48	5
HLD	115	48	7	144
TAP	115	192	4
STR	115	240	4
SI_	115	240	4	96	48	0
TAP	115	336	6
TAP	116	48	1
TAP	116	48	7
TAP	116	192	1
TAP	116	192	3
TAP	116	336	4
TAP	116	336	6
BST	117	96	0
SI_	117	96	0	96	48	3
BST	117	96	7
SI_	117	96	7	96	48	4

T_REC_TAP	498
T_REC_BRK	5
T_REC_XTP	0
T_REC_HLD	27
T_REC_XHO	0
T_REC_STR	71
T_REC_BST	6
T_REC_XST	0
T_REC_TTP	0
T_REC_THO	0
T_REC_SLD	79
T_REC_ALL	686
T_NUM_TAP	569
T_NUM_BRK	11
T_NUM_HLD	27
T_NUM_SLD	79
T_NUM_ALL	686
T_JUDGE_TAP	580
T_JUDGE_HLD	46
T_JUDGE_SLD	79
T_JUDGE_ALL	705
TTM_EACHPAIRS	99
TTM_SCR_TAP	284500
TTM_SCR_BRK	28600
TTM_SCR_HLD	27000
TTM_SCR_SLD	118500
TTM_SCR_ALL	458600
TTM_SCR_S	443800
TTM_SCR_SS	457500
TTM_RAT_ACV	10024

