VERSION	0.00.00	1.03.00
FES_MODE	0
BPM_DEF	120.000	264.000	264.000	120.000
MET_DEF	4	4
RESOLUTION	384
CLK_DEF	384
COMPATIBLE_CODE	MA2

BPM	0	0	120.000
BPM	19	0	264.000
MET	0	0	4	4
MET	19	0	4	5
MET	25	96	4	4
MET	27	96	4	5
MET	32	96	4	4
MET	64	96	4	7
MET	67	288	4	4
MET	97	288	4	7
MET	101	96	4	5
MET	111	96	4	7

HLD	2	0	3	192
TAP	2	192	4
TAP	2	288	5
HLD	3	0	6	192
TAP	3	192	7
TAP	3	288	0
HLD	4	0	1	192
HLD	4	192	3	96
TAP	4	288	4
HLD	5	0	4	192
TAP	5	192	3
TAP	5	288	2
HLD	6	0	1	192
TAP	6	192	0
TAP	6	288	7
HLD	7	0	6	192
HLD	7	192	4	192
HLD	8	0	3	192
HLD	8	192	1	192
TAP	9	0	0
TAP	9	96	7
TAP	9	192	6
TAP	9	288	4
TAP	9	288	5
TAP	10	0	7
TAP	10	96	0
TAP	10	192	1
TAP	10	288	2
TAP	10	288	3
TAP	11	0	5
TAP	11	96	4
TAP	11	96	6
TAP	11	192	2
TAP	11	288	1
TAP	11	288	3
TAP	12	0	6
TAP	12	96	0
TAP	12	96	5
TAP	12	192	1
TAP	12	288	2
TAP	12	288	7
STR	13	0	1
SCR	13	0	1	96	24	3
STR	13	0	6
SCL	13	0	6	96	24	4
TAP	13	192	3
TAP	13	288	3
TAP	13	288	4
TAP	14	0	5
TAP	14	96	4
TAP	14	96	5
TAP	14	192	2
TAP	14	288	2
TAP	14	288	3
TAP	15	0	5
TAP	15	96	4
TAP	15	96	6
TAP	15	192	2
TAP	15	288	1
TAP	15	288	3
TAP	16	0	4
TAP	16	0	5
TAP	16	96	6
TAP	16	96	7
TAP	16	192	0
TAP	16	192	1
TAP	16	288	2
TAP	16	288	3
HLD	17	0	0	96
HLD	17	0	7	96
TAP	17	192	1
TAP	17	192	6
TAP	17	288	2
TAP	17	288	5
STR	18	0	3
SXR	18	0	3	96	288	0
STR	18	0	4
SXL	18	0	4	96	288	7
HLD	20	96	2	144
TAP	20	240	3
TAP	21	0	1
TAP	21	0	4
TAP	21	96	1
TAP	21	96	4
HLD	21	192	5	144
TAP	21	336	4
TAP	22	96	3
TAP	22	96	6
TAP	22	192	3
TAP	22	192	6
HLD	22	288	2	144
TAP	23	48	3
TAP	23	192	1
TAP	23	192	4
TAP	23	288	1
TAP	23	288	4
HLD	24	0	5	144
TAP	24	144	4
TAP	24	288	3
TAP	24	288	6
TAP	25	0	3
TAP	25	0	6
TAP	25	96	2
TAP	25	192	3
TAP	25	288	4
TAP	26	0	2
TAP	26	0	5
TAP	26	96	5
TAP	26	192	4
TAP	26	288	3
TAP	27	0	2
TAP	27	0	5
HLD	27	96	1	144
TAP	27	240	0
TAP	28	0	2
TAP	28	0	7
TAP	28	96	2
TAP	28	96	7
HLD	28	192	6	144
TAP	28	336	7
TAP	29	96	0
TAP	29	96	5
TAP	29	192	0
TAP	29	192	5
HLD	29	288	1	144
TAP	30	48	0
TAP	30	192	2
TAP	30	192	7
TAP	30	288	2
TAP	30	288	7
HLD	31	0	6	144
TAP	31	144	7
TAP	31	288	0
TAP	31	288	5
TAP	32	0	0
TAP	32	0	5
TAP	32	96	1
TAP	32	192	0
TAP	32	288	7
TAP	33	0	1
TAP	33	0	6
TAP	33	96	6
TAP	33	192	7
TAP	33	288	0
TAP	34	0	1
TAP	34	0	6
TAP	34	96	2
TAP	34	192	3
TAP	34	288	2
TAP	35	0	1
TAP	35	0	4
TAP	35	96	5
TAP	35	192	4
TAP	35	288	5
TAP	36	0	3
TAP	36	0	6
TAP	36	96	2
TAP	36	192	3
TAP	36	288	2
TAP	37	0	1
TAP	37	0	4
TAP	37	96	5
TAP	37	192	3
TAP	37	192	6
TAP	37	288	2
TAP	38	0	1
TAP	38	0	4
TAP	38	96	5
TAP	38	192	4
TAP	38	288	5
TAP	39	0	3
TAP	39	0	6
TAP	39	96	2
TAP	39	192	3
TAP	39	288	2
TAP	40	0	1
TAP	40	0	4
TAP	40	96	5
TAP	40	192	4
TAP	40	288	5
TAP	41	0	3
TAP	41	0	6
TAP	41	96	2
TAP	41	192	1
TAP	41	192	4
TAP	41	288	5
TAP	42	0	3
TAP	42	0	6
TAP	42	96	1
TAP	42	192	0
TAP	42	288	1
TAP	43	0	2
TAP	43	0	7
TAP	43	96	6
TAP	43	192	7
TAP	43	288	6
TAP	44	0	0
TAP	44	0	5
TAP	44	96	1
TAP	44	192	0
TAP	44	288	1
TAP	45	0	2
TAP	45	0	7
TAP	45	96	6
TAP	45	192	0
TAP	45	192	5
TAP	45	288	1
TAP	46	0	2
TAP	46	0	7
TAP	46	96	6
TAP	46	192	7
TAP	46	288	6
TAP	47	0	0
TAP	47	0	5
TAP	47	96	1
TAP	47	192	0
TAP	47	288	1
TAP	48	0	2
TAP	48	0	7
TAP	48	96	6
TAP	48	192	7
TAP	48	288	6
TAP	49	0	0
TAP	49	0	5
TAP	49	96	1
TAP	49	192	2
TAP	49	192	7
TAP	49	288	6
TAP	50	0	0
TAP	50	0	5
STR	50	96	1
SCR	50	96	1	96	192	4
STR	51	96	6
SUL	51	96	6	96	192	2
TAP	52	96	1
TAP	52	192	2
TAP	52	288	3
TAP	53	0	4
TAP	53	96	6
TAP	53	192	5
TAP	53	288	4
TAP	54	0	3
STR	54	96	6
SCL	54	96	6	96	192	3
STR	55	96	1
SUR	55	96	1	96	192	5
TAP	56	96	6
TAP	56	192	5
TAP	56	288	4
TAP	57	0	3
TAP	57	96	1
TAP	57	192	2
TAP	57	288	3
TAP	58	0	4
STR	58	96	5
SCR	58	96	5	96	192	0
STR	59	96	2
SUL	59	96	2	96	192	6
TAP	60	96	5
TAP	60	192	6
TAP	60	288	7
TAP	61	0	0
TAP	61	96	2
TAP	61	192	1
TAP	61	288	0
TAP	62	0	7
STR	62	96	2
SCL	62	96	2	96	192	7
STR	63	96	5
SUR	63	96	5	96	192	1
HLD	64	96	1	144
HLD	64	96	3	144
HLD	65	0	4	144
HLD	65	0	6	144
TAP	65	240	4
TAP	65	240	6
TAP	66	0	0
TAP	66	0	7
TAP	66	144	0
TAP	66	144	7
BRK	66	288	0
BRK	66	288	7
STR	67	288	1
SCL	67	288	1	96	192	6
STR	68	288	5
SUR	68	288	5	96	192	2
TAP	69	288	3
TAP	70	0	3
TAP	70	96	4
TAP	70	192	4
TAP	70	288	2
TAP	71	0	2
TAP	71	96	5
TAP	71	192	5
HLD	71	288	6	192
TAP	72	96	7
TAP	72	192	0
HLD	72	288	1	192
TAP	73	96	0
TAP	73	192	7
STR	73	288	6
SXL	73	288	6	96	384	3
TAP	75	96	0
TAP	75	96	5
TAP	75	288	1
TAP	76	0	0
TAP	76	96	1
TAP	76	192	2
TAP	76	192	7
TAP	76	288	6
TAP	77	0	7
TAP	77	96	6
TAP	77	192	0
TAP	77	192	5
TAP	77	288	1
TAP	78	0	0
TAP	78	96	2
TAP	78	96	7
TAP	78	192	2
TAP	78	192	7
TAP	78	288	6
TAP	79	0	7
TAP	79	96	0
TAP	79	96	5
TAP	79	192	0
TAP	79	192	5
TAP	79	288	1
TAP	80	0	0
TAP	80	0	2
TAP	80	96	0
TAP	80	96	2
TAP	80	192	3
TAP	80	192	7
TAP	80	288	6
TAP	81	0	5
TAP	81	0	7
TAP	81	96	5
TAP	81	96	7
TAP	81	192	0
TAP	81	192	4
TAP	81	288	1
TAP	81	288	5
TAP	82	0	1
TAP	82	0	5
TAP	82	96	2
TAP	82	96	6
TAP	82	192	2
TAP	82	192	6
STR	82	288	3
SCL	82	288	3	96	192	0
STR	82	288	7
SCL	82	288	7	96	192	4
BRK	83	288	3
BRK	83	288	7
TAP	86	192	2
TAP	86	288	3
TAP	87	0	4
TAP	87	96	2
TAP	87	96	5
HLD	87	288	6	384
HLD	88	288	7	384
HLD	89	288	0	384
STR	90	288	1
SCR	90	288	1	96	240	6
TAP	91	288	7
TAP	92	0	0
TAP	92	96	1
TAP	92	96	6
TAP	92	192	1
TAP	92	192	6
TAP	92	288	2
TAP	93	0	3
TAP	93	96	1
TAP	93	96	4
TAP	93	192	1
TAP	93	192	4
TAP	93	288	5
TAP	94	0	4
TAP	94	96	3
TAP	94	96	6
TAP	94	192	3
TAP	94	192	6
TAP	94	288	7
TAP	95	0	0
TAP	95	96	1
TAP	95	96	6
TAP	95	288	6
TAP	95	288	7
STR	96	0	6
SI_	96	0	6	96	96	3
STR	96	0	7
SI_	96	0	7	96	96	2
TAP	96	288	0
TAP	96	288	1
STR	97	0	0
SI_	97	0	0	96	96	5
STR	97	0	1
SI_	97	0	1	96	96	4
HLD	97	288	4	144
HLD	97	288	6	144
HLD	98	192	1	144
HLD	98	192	3	144
TAP	99	48	1
TAP	99	48	3
TAP	99	192	0
TAP	99	192	7
TAP	99	336	0
TAP	99	336	7
BRK	100	96	1
BRK	100	96	6
HLD	101	96	2	144
TAP	101	240	3
TAP	102	0	1
TAP	102	0	4
TAP	102	96	1
TAP	102	96	4
HLD	102	192	5	144
TAP	102	336	4
TAP	103	96	3
TAP	103	96	6
TAP	103	192	3
TAP	103	192	6
HLD	103	288	2	144
TAP	104	48	3
TAP	104	192	1
TAP	104	192	4
TAP	104	288	1
TAP	104	288	4
HLD	105	0	5	144
TAP	105	144	4
TAP	105	288	3
TAP	105	288	6
TAP	106	0	3
TAP	106	0	6
HLD	106	96	1	144
TAP	106	240	0
TAP	107	0	2
TAP	107	0	7
TAP	107	96	2
TAP	107	96	7
HLD	107	192	6	144
TAP	107	336	7
TAP	108	96	0
TAP	108	96	5
TAP	108	192	0
TAP	108	192	5
HLD	108	288	1	144
TAP	109	48	0
TAP	109	192	2
TAP	109	192	7
TAP	109	288	2
TAP	109	288	7
HLD	110	0	6	144
TAP	110	144	7
TAP	110	288	0
TAP	110	288	5
TAP	111	0	0
TAP	111	0	5
HLD	111	96	2	144
HLD	111	96	3	144
HLD	112	0	4	144
HLD	112	0	5	144
TAP	112	240	4
TAP	112	240	5
HLD	113	0	3	144
HLD	113	0	6	144
HLD	113	288	1	144
HLD	113	288	4	144
TAP	114	144	1
TAP	114	144	4
HLD	114	288	2	144
HLD	114	288	7	144
HLD	115	192	0	144
HLD	115	192	5	144
TAP	116	48	0
TAP	116	48	5
TAP	116	192	1
TAP	116	192	6
TAP	116	336	2
TAP	116	336	5
BRK	117	96	0
BRK	117	96	7

T_REC_TAP	377
T_REC_BRK	8
T_REC_XTP	0
T_REC_HLD	53
T_REC_XHO	0
T_REC_STR	22
T_REC_BST	0
T_REC_XST	0
T_REC_TTP	0
T_REC_THO	0
T_REC_SLD	22
T_REC_ALL	482
T_NUM_TAP	399
T_NUM_BRK	8
T_NUM_HLD	53
T_NUM_SLD	22
T_NUM_ALL	482
T_JUDGE_TAP	407
T_JUDGE_HLD	130
T_JUDGE_SLD	22
T_JUDGE_ALL	559
TTM_EACHPAIRS	131
TTM_SCR_TAP	199500
TTM_SCR_BRK	20800
TTM_SCR_HLD	53000
TTM_SCR_SLD	33000
TTM_SCR_ALL	306300
TTM_SCR_S	296350
TTM_SCR_SS	305500
TTM_RAT_ACV	10026

