VERSION	0.00.00	1.03.00
FES_MODE	0
BPM_DEF	120.000	264.000	264.000	120.000
MET_DEF	4	4
RESOLUTION	384
CLK_DEF	384
COMPATIBLE_CODE	MA2

BPM	0	0	120.000
BPM	19	0	264.000
MET	0	0	4	4
MET	19	0	4	5
MET	25	96	4	4
MET	27	96	4	5
MET	32	96	4	4
MET	64	96	4	7
MET	67	288	4	4
MET	97	288	4	7
MET	101	96	4	5
MET	111	96	4	7

HLD	2	0	0	288
HLD	3	0	1	288
HLD	4	0	2	288
TAP	5	0	3
TAP	5	0	4
TAP	5	192	3
TAP	5	192	4
HLD	6	0	4	288
HLD	7	0	5	288
HLD	8	0	6	288
STR	9	0	7
SI_	9	0	7	96	288	4
STR	11	0	0
SI_	11	0	0	96	288	3
STR	13	0	6
SI_	13	0	6	96	288	3
STR	15	0	1
SI_	15	0	1	96	288	4
HLD	17	0	7	384
TAP	18	0	0
TAP	20	96	0
TAP	20	96	1
HLD	20	192	0	192
HLD	20	192	1	192
TAP	21	192	2
TAP	21	192	7
HLD	21	288	2	192
HLD	21	288	7	192
TAP	22	288	6
TAP	22	288	7
HLD	23	0	6	192
HLD	23	0	7	192
TAP	24	0	0
TAP	24	0	5
HLD	24	96	0	192
HLD	24	96	5	192
TAP	25	96	4
TAP	25	288	4
TAP	26	96	3
TAP	26	288	3
TAP	27	96	2
TAP	27	96	3
HLD	27	192	2	192
HLD	27	192	3	192
TAP	28	192	1
TAP	28	192	4
HLD	28	288	1	192
HLD	28	288	4	192
TAP	29	288	4
TAP	29	288	5
HLD	30	0	4	192
HLD	30	0	5	192
TAP	31	0	3
TAP	31	0	6
HLD	31	96	3	192
HLD	31	96	6	192
TAP	32	96	7
TAP	32	288	7
TAP	33	96	0
BRK	33	288	0
TAP	34	96	1
TAP	34	192	1
TAP	34	288	1
TAP	35	96	2
TAP	35	192	2
TAP	35	288	2
TAP	36	96	3
TAP	36	192	3
TAP	36	288	3
TAP	37	96	4
TAP	37	192	4
TAP	37	288	3
TAP	37	288	4
TAP	38	96	5
TAP	38	192	5
TAP	38	288	5
TAP	39	96	6
TAP	39	192	6
TAP	39	288	6
TAP	40	96	7
TAP	40	192	7
TAP	40	288	7
TAP	41	96	0
TAP	41	192	0
TAP	41	288	0
TAP	41	288	7
TAP	42	96	0
TAP	42	192	0
TAP	42	288	1
TAP	43	0	1
TAP	43	96	2
TAP	43	192	2
TAP	43	288	3
TAP	43	288	4
TAP	44	96	4
TAP	44	192	4
TAP	44	288	5
TAP	45	0	5
TAP	45	96	6
TAP	45	192	6
TAP	45	288	0
TAP	45	288	7
TAP	46	96	7
TAP	46	192	7
TAP	46	288	6
TAP	47	0	6
TAP	47	96	5
TAP	47	192	5
TAP	47	288	3
TAP	47	288	4
TAP	48	96	3
TAP	48	192	3
TAP	48	288	2
TAP	49	0	2
TAP	49	96	1
TAP	49	192	1
BRK	49	288	0
BRK	49	288	7
TAP	50	96	1
TAP	50	288	0
TAP	50	288	1
TAP	51	96	6
TAP	51	288	6
TAP	51	288	7
TAP	52	96	1
TAP	52	192	0
TAP	52	288	1
TAP	53	96	6
TAP	53	192	7
TAP	53	288	6
TAP	54	96	7
TAP	54	288	6
TAP	54	288	7
TAP	55	96	0
TAP	55	288	0
TAP	55	288	1
TAP	56	96	6
TAP	56	192	7
TAP	56	288	6
TAP	57	96	1
TAP	57	192	0
TAP	57	288	1
TAP	58	96	2
TAP	58	288	2
TAP	58	288	3
TAP	59	96	5
TAP	59	288	4
TAP	59	288	5
TAP	60	96	2
TAP	60	192	3
TAP	60	288	2
TAP	61	96	5
TAP	61	192	4
TAP	61	288	5
TAP	62	96	4
TAP	62	288	4
TAP	62	288	5
TAP	63	96	3
TAP	63	288	2
TAP	63	288	3
HLD	64	96	0	144
HLD	64	96	1	144
HLD	65	0	6	144
HLD	65	0	7	144
TAP	65	240	0
TAP	65	240	7
HLD	66	0	1	384
HLD	66	0	6	384
TAP	67	288	1
TAP	68	96	1
TAP	68	288	2
TAP	69	96	2
TAP	69	288	3
TAP	70	0	3
TAP	70	96	4
TAP	70	192	4
TAP	70	288	3
TAP	71	0	3
TAP	71	96	4
TAP	71	288	5
TAP	72	96	5
TAP	72	288	6
TAP	73	96	6
TAP	73	288	7
TAP	74	0	7
TAP	74	96	0
TAP	74	192	0
TAP	74	288	7
TAP	75	0	7
BRK	75	96	0
BRK	75	96	7
TAP	75	288	7
TAP	76	0	7
TAP	76	96	7
TAP	76	288	6
TAP	77	0	6
TAP	77	96	6
TAP	77	288	5
TAP	78	0	5
TAP	78	96	5
TAP	78	288	4
TAP	79	0	4
TAP	79	96	4
TAP	79	288	3
TAP	80	0	3
TAP	80	96	3
TAP	80	288	2
TAP	81	0	2
TAP	81	96	2
TAP	81	288	1
TAP	82	0	1
TAP	82	96	1
TAP	82	288	0
TAP	83	0	0
TAP	83	96	0
STR	83	288	7
SI_	83	288	7	96	672	3
STR	87	288	0
SI_	87	288	0	96	672	4
TAP	91	288	6
TAP	92	0	6
TAP	92	96	6
TAP	92	288	5
TAP	93	0	5
TAP	93	96	5
TAP	93	288	4
TAP	94	0	4
TAP	94	96	4
TAP	94	288	3
TAP	95	0	3
TAP	95	96	3
TAP	95	288	2
TAP	96	0	2
TAP	96	96	2
TAP	96	288	1
TAP	97	0	1
TAP	97	96	1
TAP	97	288	7
TAP	97	336	7
TAP	98	48	7
TAP	98	192	0
TAP	98	240	0
TAP	98	336	0
TAP	99	192	0
TAP	99	192	7
TAP	99	336	0
TAP	99	336	7
TAP	100	96	0
TAP	100	96	7
TAP	101	96	2
TAP	101	192	2
TAP	101	288	2
TAP	102	0	2
TAP	102	0	3
TAP	102	192	1
TAP	102	288	1
TAP	103	0	1
TAP	103	96	0
TAP	103	96	1
TAP	103	288	6
TAP	104	0	6
TAP	104	96	6
TAP	104	192	6
TAP	104	192	7
TAP	105	0	5
TAP	105	96	5
TAP	105	192	5
TAP	105	288	4
TAP	105	288	5
TAP	106	96	5
TAP	106	192	4
TAP	106	288	5
TAP	107	0	4
TAP	107	0	5
TAP	107	192	6
TAP	107	288	7
TAP	108	0	6
TAP	108	96	6
TAP	108	96	7
TAP	108	288	1
TAP	109	0	0
TAP	109	96	1
TAP	109	192	0
TAP	109	192	1
TAP	110	0	2
TAP	110	96	3
TAP	110	192	2
TAP	110	288	2
TAP	110	288	3
HLD	111	96	4	288
HLD	111	96	5	288
TAP	112	240	3
TAP	112	240	4
HLD	113	0	2	288
HLD	113	0	3	288
TAP	114	144	3
TAP	114	144	4
HLD	114	288	2	288
HLD	114	288	5	288
TAP	116	48	3
TAP	116	48	4
TAP	116	192	3
TAP	116	192	4
TAP	116	336	2
TAP	116	336	5
BRK	117	96	1
BRK	117	96	6

T_REC_TAP	253
T_REC_BRK	7
T_REC_XTP	0
T_REC_HLD	35
T_REC_XHO	0
T_REC_STR	6
T_REC_BST	0
T_REC_XST	0
T_REC_TTP	0
T_REC_THO	0
T_REC_SLD	6
T_REC_ALL	307
T_NUM_TAP	259
T_NUM_BRK	7
T_NUM_HLD	35
T_NUM_SLD	6
T_NUM_ALL	307
T_JUDGE_TAP	266
T_JUDGE_HLD	110
T_JUDGE_SLD	6
T_JUDGE_ALL	382
TTM_EACHPAIRS	57
TTM_SCR_TAP	129500
TTM_SCR_BRK	18200
TTM_SCR_HLD	35000
TTM_SCR_SLD	9000
TTM_SCR_ALL	191700
TTM_SCR_S	185300
TTM_SCR_SS	191000
TTM_RAT_ACV	10036

