VERSION	0.00.00	1.03.00
FES_MODE	0
BPM_DEF	260.000	260.000	260.000	260.000
MET_DEF	4	4
RESOLUTION	384
CLK_DEF	384
COMPATIBLE_CODE	MA2

BPM	0	0	260.000
MET	0	0	4	4

TAP	2	0	3
TAP	2	0	4
TAP	2	96	0
TAP	2	96	1
TAP	2	160	2
HLD	2	160	7	128
TAP	2	288	5
TAP	3	0	3
TAP	3	0	4
TAP	3	96	6
TAP	3	96	7
HLD	3	160	0	128
TAP	3	160	5
TAP	3	288	2
TAP	4	0	3
TAP	4	0	4
TAP	4	96	0
TAP	4	96	1
TAP	4	160	2
HLD	4	160	7	128
TAP	4	288	5
TAP	5	0	3
TAP	5	0	4
TAP	5	96	6
TAP	5	96	7
HLD	5	160	0	128
TAP	5	160	5
TAP	5	288	2
TAP	6	0	1
TAP	6	0	4
TAP	6	96	2
TAP	6	160	3
TAP	6	256	3
TAP	6	288	2
TAP	7	0	3
TAP	7	0	6
TAP	7	96	5
TAP	7	160	4
TAP	7	256	4
TAP	7	288	5
TAP	8	0	1
TAP	8	0	4
TAP	8	96	2
TAP	8	160	3
TAP	8	256	3
TAP	8	288	2
TAP	8	352	5
TAP	9	0	4
TAP	9	32	3
TAP	9	64	2
TAP	9	96	1
TAP	9	128	0
TAP	9	160	7
TAP	9	192	6
TAP	9	256	3
TAP	9	288	4
STR	10	0	1
SI_	10	0	1	96	64	4
TAP	10	0	7
TAP	10	96	5
TAP	10	192	0
STR	10	192	6
SI_	10	192	6	96	64	3
TAP	10	288	2
STR	11	0	1
SI_	11	0	1	96	64	4
TAP	11	0	7
TAP	11	96	5
TAP	11	192	0
STR	11	192	6
SI_	11	192	6	96	64	3
TAP	11	288	2
TAP	12	0	0
STR	12	0	1
SI_	12	0	1	96	64	4
TAP	12	96	5
STR	12	192	6
SI_	12	192	6	96	64	3
TAP	12	192	7
TAP	12	288	2
TAP	13	0	0
STR	13	0	1
SI_	13	0	1	96	64	4
TAP	13	96	5
STR	13	192	6
SI_	13	192	6	96	64	3
TAP	13	192	7
TAP	13	288	2
TAP	14	0	0
STR	14	0	1
SI_	14	0	1	96	96	4
STR	14	96	4
SXR	14	96	4	96	192	0
TAP	14	192	5
TAP	14	288	6
TAP	15	0	7
TAP	15	96	0
TAP	15	96	6
TAP	15	192	1
TAP	15	192	5
TAP	15	288	2
TAP	15	288	4
TAP	16	0	3
STR	16	96	0
SXL	16	96	0	96	96	2
STR	16	96	7
SXR	16	96	7	96	96	5
TAP	16	192	0
TAP	16	192	7
TAP	16	352	1
TAP	16	352	6
TAP	17	64	2
TAP	17	96	3
TAP	17	160	5
TAP	17	192	4
TAP	17	288	2
TAP	17	288	5
TAP	18	0	0
STR	18	0	6
SCL	18	0	6	96	64	3
TAP	18	96	2
STR	18	192	1
SCR	18	192	1	96	64	4
TAP	18	192	7
TAP	18	288	5
TAP	19	0	0
STR	19	0	6
SCL	19	0	6	96	64	3
TAP	19	96	2
STR	19	192	1
SCR	19	192	1	96	64	4
TAP	19	192	7
TAP	19	288	5
STR	20	0	6
SCL	20	0	6	96	64	3
TAP	20	0	7
TAP	20	96	2
TAP	20	192	0
STR	20	192	1
SCR	20	192	1	96	64	4
TAP	20	288	5
STR	21	0	6
SCL	21	0	6	96	64	3
TAP	21	0	7
TAP	21	96	2
TAP	21	192	0
STR	21	192	1
SCR	21	192	1	96	64	4
TAP	21	288	5
STR	22	0	6
SCL	22	0	6	96	96	3
TAP	22	0	7
STR	22	96	3
SXL	22	96	3	96	192	7
TAP	22	192	2
TAP	22	288	1
TAP	23	0	0
TAP	23	96	1
TAP	23	96	7
TAP	23	192	2
TAP	23	192	6
TAP	23	288	3
TAP	23	288	5
TAP	24	0	4
STR	24	96	0
SXL	24	96	0	96	96	2
STR	24	96	7
SXR	24	96	7	96	96	5
TAP	24	192	0
TAP	24	192	7
TAP	24	352	1
TAP	24	352	6
TAP	25	64	5
TAP	25	96	4
TAP	25	160	2
TAP	25	192	3
TAP	25	288	2
TAP	25	288	5
BRK	26	0	0
TAP	26	96	3
TAP	26	96	4
TAP	26	192	0
TAP	26	192	6
STR	26	256	7
SXL	26	256	7	96	96	1
SXR	26	256	7	96	96	5
TAP	26	352	7
TAP	27	96	0
TAP	27	96	6
TAP	27	192	3
TAP	27	192	4
TAP	27	256	3
TAP	27	256	4
TAP	27	352	0
HLD	27	352	1	288
TAP	28	96	2
TAP	28	192	7
TAP	28	256	7
HLD	28	352	6	288
TAP	28	352	7
TAP	29	96	5
TAP	29	192	0
TAP	29	256	0
TAP	29	352	1
TAP	29	352	6
TAP	30	96	3
TAP	30	96	4
TAP	30	192	1
TAP	30	192	7
STR	30	256	0
SXL	30	256	0	96	96	2
SXR	30	256	0	96	96	6
TAP	30	352	0
TAP	31	96	1
TAP	31	96	7
TAP	31	192	3
TAP	31	192	4
TAP	31	256	3
TAP	31	256	4
STR	31	352	6
SI_	31	352	6	96	96	4
TAP	31	352	7
STR	32	96	0
SI_	32	96	0	96	64	2
STR	32	192	7
SI_	32	192	7	96	96	3
TAP	32	256	7
STR	32	352	1
SI_	32	352	1	96	96	3
STR	33	96	7
SI_	33	96	7	96	64	5
STR	33	192	0
SI_	33	192	0	96	96	4
TAP	33	256	0
TAP	33	352	7
TAP	34	96	3
TAP	34	96	4
TAP	34	192	0
TAP	34	192	6
STR	34	256	7
SXL	34	256	7	96	96	1
SXR	34	256	7	96	96	5
TAP	34	352	7
TAP	35	96	0
TAP	35	96	6
TAP	35	192	3
TAP	35	192	4
TAP	35	256	3
TAP	35	256	4
TAP	35	352	0
STR	35	352	7
SXR	35	352	7	96	128	5
TAP	36	96	2
STR	36	192	3
SXR	36	192	3	96	96	1
TAP	36	288	6
STR	37	0	7
SXR	37	0	7	96	96	5
TAP	37	96	2
STR	37	192	3
SXR	37	192	3	96	96	1
TAP	37	288	6
STR	38	0	7
SXR	38	0	7	96	256	2
TAP	38	96	3
TAP	38	192	1
TAP	38	256	1
TAP	38	352	0
TAP	39	96	0
TAP	39	96	5
TAP	39	256	2
TAP	39	256	7
TAP	40	0	0
STR	40	0	7
SXR	40	0	7	96	288	4
TAP	40	96	1
TAP	40	192	2
TAP	40	256	2
TAP	40	352	3
TAP	41	0	3
TAP	41	96	0
TAP	41	96	5
TAP	41	192	1
TAP	41	192	4
TAP	41	256	1
TAP	41	256	4
TAP	42	0	3
TAP	42	0	4
TAP	42	96	2
TAP	42	96	5
TAP	42	192	1
TAP	42	192	6
STR	42	288	0
SI_	42	288	0	96	64	3
STR	42	288	7
SI_	42	288	7	96	64	4
BRK	43	0	0
BRK	43	0	7
TAP	43	288	3
TAP	43	288	4
STR	44	0	1
SXR	44	0	1	96	384	4
STR	44	0	6
SXL	44	0	6	96	384	3
TAP	45	256	3
TAP	45	288	4
TAP	46	0	5
TAP	46	0	7
TAP	46	96	0
TAP	46	96	6
HLD	46	192	1	96
HLD	46	192	7	96
STR	46	352	0
SLR	46	352	0	96	128	7
STR	46	352	6
SLL	46	352	6	96	128	7
TAP	47	352	1
TAP	47	352	5
STR	48	96	3
SXL	48	96	3	96	192	7
TAP	48	192	2
TAP	48	288	1
TAP	49	0	0
TAP	49	96	1
TAP	49	96	7
TAP	49	192	2
TAP	49	192	6
TAP	49	288	3
TAP	49	288	5
TAP	50	0	4
STR	50	96	0
SXL	50	96	0	96	96	2
STR	50	96	7
SXR	50	96	7	96	96	5
TAP	50	192	0
TAP	50	192	7
TAP	50	352	1
TAP	50	352	6
TAP	51	64	2
TAP	51	96	3
TAP	51	160	5
TAP	51	192	4
TAP	51	288	2
TAP	51	288	5
STR	52	0	1
SUR	52	0	1	96	64	5
TAP	52	0	7
TAP	52	96	5
TAP	52	192	0
STR	52	192	6
SUL	52	192	6	96	64	2
TAP	52	288	2
STR	53	0	1
SUR	53	0	1	96	64	5
TAP	53	0	7
TAP	53	96	5
TAP	53	192	0
STR	53	192	6
SUL	53	192	6	96	64	2
TAP	53	288	2
TAP	54	0	0
STR	54	0	1
SUR	54	0	1	96	64	5
TAP	54	96	5
STR	54	192	6
SUL	54	192	6	96	64	2
TAP	54	192	7
TAP	54	288	2
TAP	55	0	0
STR	55	0	1
SUR	55	0	1	96	64	5
TAP	55	96	5
STR	55	192	6
SUL	55	192	6	96	64	2
TAP	55	192	7
TAP	55	288	2
TAP	56	0	0
STR	56	0	1
SUR	56	0	1	96	96	5
STR	56	96	5
SXR	56	96	5	96	192	1
TAP	56	192	6
TAP	56	288	7
TAP	57	0	0
TAP	57	96	1
TAP	57	96	7
TAP	57	192	2
TAP	57	192	6
TAP	57	288	3
TAP	57	288	5
TAP	58	0	4
STR	58	96	0
SXL	58	96	0	96	96	2
STR	58	96	7
SXR	58	96	7	96	96	5
TAP	58	192	0
TAP	58	192	7
TAP	58	352	1
TAP	58	352	6
TAP	59	64	2
TAP	59	96	3
TAP	59	160	5
TAP	59	192	4
TAP	59	288	2
TAP	59	288	5
BRK	59	352	0
BRK	59	352	7
TAP	60	96	7
TAP	60	192	6
TAP	60	288	5
STR	61	0	4
SUL	61	0	4	96	192	3
TAP	61	96	3
TAP	61	192	2
TAP	61	288	1
HLD	62	0	0	96
HLD	62	192	1	96
HLD	62	192	7	96
BRK	62	352	2
BST	62	352	6
SUL	62	352	6	96	416	3
TAP	65	0	4
TAP	65	0	6
TAP	65	96	3
TAP	65	96	4
TAP	65	192	1
TAP	65	192	3
TAP	65	256	1
TAP	65	256	3
TAP	66	0	0
TAP	66	96	0
TAP	66	160	7
TAP	66	256	7
TAP	66	288	0
TAP	67	0	1
TAP	67	0	3
TAP	67	96	3
TAP	67	96	4
TAP	67	192	4
TAP	67	192	6
TAP	67	256	4
TAP	67	256	6
HLD	68	0	0	96
HLD	68	0	7	96
HLD	68	160	0	128
HLD	68	160	7	128
TAP	69	0	1
TAP	69	0	3
TAP	69	96	3
TAP	69	96	4
TAP	69	192	4
TAP	69	192	6
TAP	69	256	4
TAP	69	256	6
TAP	70	0	7
TAP	70	96	7
TAP	70	160	0
TAP	70	256	0
TAP	70	288	7
TAP	71	0	4
TAP	71	0	6
TAP	71	96	3
TAP	71	96	4
TAP	71	192	1
TAP	71	192	3
TAP	71	256	1
TAP	71	256	3
HLD	72	0	0	96
HLD	72	0	7	96
HLD	72	160	0	128
HLD	72	160	7	128
BRK	73	0	1
TAP	73	48	3
TAP	73	96	2
TAP	73	144	4
TAP	73	192	3
TAP	73	240	5
TAP	73	288	4
TAP	73	336	6
STR	74	0	0
SXL	74	0	0	96	192	3
TAP	74	96	7
TAP	74	192	6
TAP	74	288	5
TAP	75	0	4
TAP	75	48	3
TAP	75	96	5
TAP	75	144	2
TAP	75	192	6
TAP	75	240	1
STR	75	288	7
SI_	75	288	7	96	96	3
TAP	75	336	0
TAP	76	0	7
STR	76	96	0
SI_	76	96	0	96	48	2
TAP	76	144	0
STR	76	240	6
SI_	76	240	6	96	48	4
TAP	76	288	6
TAP	77	0	0
TAP	77	48	0
STR	77	96	0
SSL	77	96	0	96	192	4
TAP	77	192	7
TAP	77	240	7
TAP	77	336	6
TAP	78	0	6
TAP	78	96	5
TAP	78	144	5
TAP	78	240	3
TAP	78	240	4
TAP	78	336	3
TAP	79	0	4
TAP	79	48	3
TAP	79	96	2
TAP	79	144	1
TAP	79	192	0
TAP	79	240	7
TAP	79	288	6
TAP	79	336	5
TAP	80	0	3
TAP	80	0	4
TAP	80	96	1
TAP	80	96	2
TAP	80	192	0
TAP	80	192	7
TAP	80	288	5
TAP	80	288	6
TAP	81	0	2
TAP	81	48	4
TAP	81	96	0
TAP	81	144	5
TAP	81	192	3
TAP	81	240	7
TAP	81	288	2
TAP	81	336	4
TAP	82	0	0
TAP	82	48	5
TAP	82	96	3
BRK	82	144	0
BRK	82	144	7
TAP	83	0	1
TAP	83	0	2
TAP	83	96	5
TAP	83	96	6
TAP	83	192	0
TAP	83	240	7
TAP	83	288	1
TAP	83	336	6
TAP	84	0	3
TAP	84	96	2
TAP	84	96	4
TAP	84	192	1
TAP	84	192	5
TAP	84	288	0
TAP	84	288	6
TAP	85	0	7
TAP	85	32	6
TAP	85	64	5
BRK	85	96	2
TAP	85	96	4
TAP	85	192	7
TAP	85	224	6
TAP	85	256	5
BRK	85	288	1
TAP	85	288	4
TAP	86	0	0
TAP	86	32	1
TAP	86	64	2
TAP	86	96	3
BRK	86	96	5
TAP	86	192	0
TAP	86	224	1
TAP	86	256	2
TAP	86	288	3
BRK	86	288	6
TAP	87	0	7
TAP	87	32	6
TAP	87	64	5
BRK	87	96	0
TAP	87	96	4
TAP	87	192	0
TAP	87	224	1
TAP	87	256	2
STR	87	288	3
SCL	87	288	3	96	288	4
SUR	87	288	3	96	288	4
BRK	87	288	7
BRK	88	0	3
TAP	89	0	1
TAP	89	0	7
TAP	89	96	4
TAP	89	192	1
TAP	89	192	7
STR	89	256	0
SXL	89	256	0	96	96	2
SXR	89	256	0	96	96	6
TAP	89	352	0
TAP	90	96	1
TAP	90	96	7
TAP	90	192	4
TAP	90	192	5
TAP	90	256	3
TAP	90	256	6
TAP	90	352	7
TAP	91	0	0
TAP	91	64	0
TAP	91	96	1
TAP	91	160	1
TAP	91	192	2
TAP	91	256	2
TAP	91	288	3
TAP	91	352	3
TAP	92	0	4
TAP	92	64	4
TAP	92	96	5
TAP	92	160	5
TAP	92	192	6
TAP	92	256	6
TAP	92	352	5
TAP	92	352	7
TAP	93	96	3
TAP	93	192	0
TAP	93	192	6
STR	93	256	7
SXL	93	256	7	96	96	1
SXR	93	256	7	96	96	5
TAP	93	352	7
TAP	94	96	0
TAP	94	96	6
TAP	94	192	2
TAP	94	192	3
TAP	94	256	1
TAP	94	256	4
TAP	94	352	0
TAP	95	0	7
TAP	95	64	7
TAP	95	96	6
TAP	95	160	6
TAP	95	192	5
TAP	95	256	5
TAP	95	288	4
TAP	95	352	4
TAP	96	0	3
TAP	96	64	3
TAP	96	96	2
TAP	96	160	2
TAP	96	192	1
TAP	96	256	1
TAP	96	352	0
TAP	96	352	2
TAP	97	96	4
TAP	97	192	1
TAP	97	192	7
STR	97	256	0
SXL	97	256	0	96	96	2
SXR	97	256	0	96	96	6
TAP	97	352	0
TAP	98	96	1
TAP	98	96	7
TAP	98	192	4
TAP	98	192	5
STR	98	256	3
SI_	98	256	3	96	128	7
TAP	98	256	6
TAP	98	352	3
TAP	98	352	4
STR	99	96	4
SI_	99	96	4	96	96	0
TAP	99	192	3
TAP	99	192	4
STR	99	288	2
SI_	99	288	2	96	96	7
TAP	100	0	2
TAP	100	0	4
STR	100	96	5
SI_	100	96	5	96	96	0
TAP	100	192	3
TAP	100	192	5
TAP	100	288	1
STR	101	0	2
SUL	101	0	2	96	256	7
TAP	101	0	3
TAP	101	96	4
TAP	101	192	5
TAP	101	256	5
TAP	101	352	6
TAP	102	96	0
TAP	102	96	5
TAP	102	256	2
TAP	102	256	7
TAP	103	0	0
STR	103	0	4
SXL	103	0	4	96	256	7
TAP	103	96	1
TAP	103	192	2
TAP	103	256	2
TAP	103	352	3
TAP	104	0	3
TAP	104	96	2
TAP	104	96	6
TAP	104	192	1
TAP	104	192	5
TAP	104	256	1
TAP	104	256	5
TAP	105	0	5
TAP	105	0	6
TAP	105	96	4
TAP	105	96	7
TAP	105	192	0
TAP	105	192	3
STR	105	288	1
SCL	105	288	1	96	96	6
STR	105	288	2
SCR	105	288	2	96	96	5
BRK	106	0	1
BRK	106	0	2
HLD	107	0	3	384
TAP	107	96	2
TAP	107	288	2
HLD	108	0	4	384
TAP	108	96	5
TAP	108	288	5
HLD	109	0	2	384
TAP	109	96	0
TAP	109	288	0
HLD	110	0	5	384
TAP	110	96	7
TAP	110	288	7
HLD	111	0	0	192
TAP	111	96	2
HLD	111	192	7	192
TAP	111	288	5
HLD	112	0	0	192
TAP	112	96	1
HLD	112	192	7	192
TAP	112	288	6
STR	113	0	0
SCR	113	0	0	96	96	3
TAP	113	96	0
STR	113	192	0
SCL	113	192	0	96	96	5
TAP	113	288	0
TAP	114	0	0
TAP	114	32	1
TAP	114	64	2
TAP	114	96	3
TAP	114	128	4
TAP	114	160	5
TAP	114	192	6
TAP	114	224	7
TAP	114	256	0
TAP	114	288	1
TAP	114	288	5
STR	115	0	2
SCL	115	0	2	96	64	7
TAP	115	0	4
TAP	115	96	6
TAP	115	192	3
STR	115	192	5
SCR	115	192	5	96	64	0
TAP	115	288	1
STR	116	0	2
SCL	116	0	2	96	64	7
TAP	116	0	4
TAP	116	96	6
TAP	116	192	3
STR	116	192	5
SCR	116	192	5	96	64	0
TAP	116	288	1
STR	117	0	2
SI_	117	0	2	96	64	7
TAP	117	0	4
TAP	117	96	6
TAP	117	192	3
STR	117	192	5
SI_	117	192	5	96	64	0
TAP	117	288	1
STR	118	0	2
SI_	118	0	2	96	64	7
TAP	118	0	4
TAP	118	96	6
TAP	118	192	3
STR	118	192	5
SI_	118	192	5	96	64	0
TAP	118	288	1
STR	119	0	2
SI_	119	0	2	96	96	7
TAP	119	0	4
STR	119	96	7
SXL	119	96	7	96	192	3
TAP	119	192	6
TAP	119	288	5
TAP	120	0	4
TAP	120	96	3
TAP	120	96	5
TAP	120	192	2
TAP	120	192	6
TAP	120	288	1
TAP	120	288	7
TAP	121	0	0
STR	121	96	6
SXR	121	96	6	96	96	4
STR	121	96	7
SXL	121	96	7	96	96	1
TAP	121	192	6
TAP	121	192	7
TAP	121	352	0
TAP	121	352	5
TAP	122	64	2
TAP	122	96	3
TAP	122	160	5
TAP	122	192	4
TAP	122	288	3
TAP	122	288	4
BRK	122	352	1
BST	122	352	6
SCR	122	352	6	96	224	1
TAP	123	96	5
TAP	123	192	4
TAP	123	288	3
TAP	124	0	2
TAP	124	96	1
TAP	124	96	3
TAP	124	192	0
TAP	124	192	4
TAP	124	288	5
TAP	124	288	7
HLD	125	0	6	96
HLD	125	192	5	96
HLD	125	192	7	96
BRK	125	352	0
BST	125	352	4
SF_	125	352	4	96	192	0
TAP	127	0	6
TAP	127	64	6
TAP	127	96	0
TAP	127	192	3
TAP	127	192	5
TAP	127	256	3
HLD	127	256	5	416
TAP	128	0	7
TAP	128	96	1
TAP	128	160	1
TAP	128	256	3
TAP	128	288	3
TAP	129	0	1
TAP	129	64	1
TAP	129	96	7
TAP	129	192	2
TAP	129	192	4
HLD	129	256	2	416
TAP	129	256	4
TAP	130	0	0
TAP	130	96	6
TAP	130	160	6
TAP	130	256	4
TAP	130	288	4
TAP	131	0	7
TAP	131	64	7
TAP	131	96	0
TAP	131	192	3
TAP	131	192	4
TAP	131	256	3
TAP	131	256	4
TAP	132	0	1
TAP	132	0	5
TAP	132	96	1
TAP	132	96	5
TAP	132	160	2
STR	132	160	6
SCL	132	160	6	96	128	3
TAP	132	256	1
TAP	132	288	1
TAP	133	0	0
TAP	133	64	0
TAP	133	96	7
TAP	133	192	3
TAP	133	192	4
TAP	133	256	3
TAP	133	256	4
TAP	134	0	2
TAP	134	0	6
TAP	134	96	2
TAP	134	96	6
STR	134	160	1
SCR	134	160	1	96	128	4
TAP	134	160	5
TAP	134	256	6
TAP	134	288	6
HLD	135	0	7	672
TAP	135	96	0
TAP	135	192	6
TAP	135	256	6
TAP	135	352	1
TAP	136	0	1
TAP	136	96	5
TAP	136	160	5
TAP	136	256	4
TAP	136	288	3
TAP	136	320	2
TAP	136	352	1
HLD	137	0	0	768
BST	137	0	4
SCR	137	0	4	96	672	4

T_REC_TAP	649
T_REC_BRK	20
T_REC_XTP	0
T_REC_HLD	34
T_REC_XHO	0
T_REC_STR	94
T_REC_BST	4
T_REC_XST	0
T_REC_TTP	0
T_REC_THO	0
T_REC_SLD	105
T_REC_ALL	906
T_NUM_TAP	743
T_NUM_BRK	24
T_NUM_HLD	34
T_NUM_SLD	105
T_NUM_ALL	906
T_JUDGE_TAP	767
T_JUDGE_HLD	83
T_JUDGE_SLD	105
T_JUDGE_ALL	955
TTM_EACHPAIRS	217
TTM_SCR_TAP	371500
TTM_SCR_BRK	62400
TTM_SCR_HLD	34000
TTM_SCR_SLD	157500
TTM_SCR_ALL	625400
TTM_SCR_S	604350
TTM_SCR_SS	623000
TTM_RAT_ACV	10038

